  0
SECTION
  2
HEADER
  9
$ACADVER
  1
AC1015
  9
$ACADMAINTVER
 70
     6
  9
$DWGCODEPAGE
  3
ANSI_1250
  9
$INSBASE
 10
0.0
 20
0.0
 30
0.0
  9
$EXTMIN
 10
0.0
 20
0.0
 30
0.0
  9
$EXTMAX
 10
210.0
 20
297.0
 30
0.0
  9
$LIMMIN
 10
0.0
 20
0.0
  9
$LIMMAX
 10
210.0
 20
297.0
  9
$ORTHOMODE
 70
     0
  9
$REGENMODE
 70
     1
  9
$FILLMODE
 70
     1
  9
$QTEXTMODE
 70
     0
  9
$MIRRTEXT
 70
     1
  9
$LTSCALE
 40
1.0
  9
$ATTMODE
 70
     1
  9
$TEXTSIZE
 40
2.5
  9
$TRACEWID
 40
1.0
  9
$TEXTSTYLE
  7
Standard
  9
$CLAYER
  8
0
  9
$CELTYPE
  6
ByLayer
  9
$CECOLOR
 62
   256
  9
$CELTSCALE
 40
1.0
  9
$DISPSILH
 70
     0
  9
$DIMSCALE
 40
1.0
  9
$DIMASZ
 40
2.5
  9
$DIMEXO
 40
0.0
  9
$DIMDLI
 40
3.75
  9
$DIMRND
 40
0.0
  9
$DIMDLE
 40
0.0
  9
$DIMEXE
 40
1.0
  9
$DIMTP
 40
0.0
  9
$DIMTM
 40
0.0
  9
$DIMTXT
 40
2.5
  9
$DIMCEN
 40
2.5
  9
$DIMTSZ
 40
0.0
  9
$DIMTOL
 70
     0
  9
$DIMLIM
 70
     0
  9
$DIMTIH
 70
     1
  9
$DIMTOH
 70
     1
  9
$DIMSE1
 70
     0
  9
$DIMSE2
 70
     0
  9
$DIMTAD
 70
     1
  9
$DIMZIN
 70
     1
  9
$DIMBLK
  1

  9
$DIMASO
 70
     1
  9
$DIMSHO
 70
     1
  9
$DIMPOST
  1

  9
$DIMAPOST
  1

  9
$DIMALT
 70
     0
  9
$DIMALTD
 70
     3
  9
$DIMALTF
 40
0.0393700787
  9
$DIMLFAC
 40
1.0
  9
$DIMTOFL
 70
     1
  9
$DIMTVP
 40
0.0
  9
$DIMTIX
 70
     0
  9
$DIMSOXD
 70
     0
  9
$DIMSAH
 70
     0
  9
$DIMBLK1
  1

  9
$DIMBLK2
  1

  9
$DIMSTYLE
  2
ISO-25
  9
$DIMCLRD
 70
     0
  9
$DIMCLRE
 70
     0
  9
$DIMCLRT
 70
     0
  9
$DIMTFAC
 40
1.0
  9
$DIMGAP
 40
1.524
  9
$DIMJUST
 70
     0
  9
$DIMSD1
 70
     0
  9
$DIMSD2
 70
     0
  9
$DIMTOLJ
 70
     0
  9
$DIMTZIN
 70
     1
  9
$DIMALTZ
 70
     0
  9
$DIMALTTZ
 70
     0
  9
$DIMUPT
 70
     0
  9
$DIMDEC
 70
     2
  9
$DIMTDEC
 70
     2
  9
$DIMALTU
 70
     2
  9
$DIMALTTD
 70
     3
  9
$DIMTXSTY
  7
Standard
  9
$DIMAUNIT
 70
     0
  9
$DIMADEC
 70
     2
  9
$DIMALTRND
 40
0.0
  9
$DIMAZIN
 70
     0
  9
$DIMDSEP
 70
    44
  9
$DIMATFIT
 70
     3
  9
$DIMFRAC
 70
     0
  9
$DIMLDRBLK
  1

  9
$DIMLUNIT
 70
     2
  9
$DIMLWD
 70
    -2
  9
$DIMLWE
 70
    -2
  9
$DIMTMOVE
 70
     0
  9
$LUNITS
 70
     2
  9
$LUPREC
 70
     0
  9
$SKETCHINC
 40
1.0
  9
$FILLETRAD
 40
10.0
  9
$AUNITS
 70
     0
  9
$AUPREC
 70
     2
  9
$MENU
  1
.
  9
$ELEVATION
 40
0.0
  9
$PELEVATION
 40
0.0
  9
$THICKNESS
 40
0.0
  9
$LIMCHECK
 70
     0
  9
$CHAMFERA
 40
10.0
  9
$CHAMFERB
 40
10.0
  9
$CHAMFERC
 40
20.0
  9
$CHAMFERD
 40
0.0
  9
$SKPOLY
 70
     0
  9
$TDCREATE
 40
2455715.566857627
  9
$TDUCREATE
 40
2455715.483524294
  9
$TDUPDATE
 40
2455715.566857639
  9
$TDUUPDATE
 40
2455715.483524306
  9
$TDINDWG
 40
0.0000000116
  9
$TDUSRTIMER
 40
0.0000000116
  9
$USRTIMER
 70
     1
  9
$ANGBASE
 50
0.0
  9
$ANGDIR
 70
     0
  9
$PDMODE
 70
     0
  9
$PDSIZE
 40
-1.0
  9
$PLINEWID
 40
0.0
  9
$SPLFRAME
 70
     0
  9
$SPLINETYPE
 70
     6
  9
$SPLINESEGS
 70
     8
  9
$HANDSEED
  5
2D3
  9
$SURFTAB1
 70
     6
  9
$SURFTAB2
 70
     6
  9
$SURFTYPE
 70
     6
  9
$SURFU
 70
     6
  9
$SURFV
 70
     6
  9
$UCSBASE
  2

  9
$UCSNAME
  2

  9
$UCSORG
 10
0.0
 20
0.0
 30
0.0
  9
$UCSXDIR
 10
1.0
 20
0.0
 30
0.0
  9
$UCSYDIR
 10
0.0
 20
1.0
 30
0.0
  9
$UCSORTHOREF
  2

  9
$UCSORTHOVIEW
 70
     0
  9
$UCSORGTOP
 10
0.0
 20
0.0
 30
0.0
  9
$UCSORGBOTTOM
 10
0.0
 20
0.0
 30
0.0
  9
$UCSORGLEFT
 10
0.0
 20
0.0
 30
0.0
  9
$UCSORGRIGHT
 10
0.0
 20
0.0
 30
0.0
  9
$UCSORGFRONT
 10
0.0
 20
0.0
 30
0.0
  9
$UCSORGBACK
 10
0.0
 20
0.0
 30
0.0
  9
$PUCSBASE
  2

  9
$PUCSNAME
  2

  9
$PUCSORG
 10
0.0
 20
0.0
 30
0.0
  9
$PUCSXDIR
 10
1.0
 20
0.0
 30
0.0
  9
$PUCSYDIR
 10
0.0
 20
1.0
 30
0.0
  9
$PUCSORTHOREF
  2

  9
$PUCSORTHOVIEW
 70
     0
  9
$PUCSORGTOP
 10
0.0
 20
0.0
 30
0.0
  9
$PUCSORGBOTTOM
 10
0.0
 20
0.0
 30
0.0
  9
$PUCSORGLEFT
 10
0.0
 20
0.0
 30
0.0
  9
$PUCSORGRIGHT
 10
0.0
 20
0.0
 30
0.0
  9
$PUCSORGFRONT
 10
0.0
 20
0.0
 30
0.0
  9
$PUCSORGBACK
 10
0.0
 20
0.0
 30
0.0
  9
$USERI1
 70
     0
  9
$USERI2
 70
     0
  9
$USERI3
 70
     0
  9
$USERI4
 70
     0
  9
$USERI5
 70
     0
  9
$USERR1
 40
0.0
  9
$USERR2
 40
0.0
  9
$USERR3
 40
0.0
  9
$USERR4
 40
0.0
  9
$USERR5
 40
0.0
  9
$WORLDVIEW
 70
     1
  9
$SHADEDGE
 70
     3
  9
$SHADEDIF
 70
    70
  9
$TILEMODE
 70
     1
  9
$MAXACTVP
 70
    64
  9
$PINSBASE
 10
0.0
 20
0.0
 30
0.0
  9
$PLIMCHECK
 70
     0
  9
$PEXTMIN
 10
1.0000000000E+20
 20
1.0000000000E+20
 30
1.0000000000E+20
  9
$PEXTMAX
 10
-1.0000000000E+20
 20
-1.0000000000E+20
 30
-1.0000000000E+20
  9
$PLIMMIN
 10
0.0
 20
0.0
  9
$PLIMMAX
 10
420.0
 20
297.0
  9
$UNITMODE
 70
     0
  9
$VISRETAIN
 70
     1
  9
$PLINEGEN
 70
     0
  9
$PSLTSCALE
 70
     1
  9
$TREEDEPTH
 70
  3020
  9
$CMLSTYLE
  2
Standard
  9
$CMLJUST
 70
     0
  9
$CMLSCALE
 40
20.0
  9
$PROXYGRAPHICS
 70
     1
  9
$MEASUREMENT
 70
     1
  9
$CELWEIGHT
370
    -1
  9
$ENDCAPS
280
     0
  9
$JOINSTYLE
280
     0
  9
$LWDISPLAY
290
     1
  9
$INSUNITS
 70
     4
  9
$HYPERLINKBASE
  1

  9
$STYLESHEET
  1

  9
$XEDIT
290
     1
  9
$CEPSNTYPE
380
     0
  9
$PSTYLEMODE
290
     1
  9
$FINGERPRINTGUID
  2
{08F09C5E-4EA0-4BF7-BF14-4B09FB18804D}
  9
$VERSIONGUID
  2
{FAEB1C32-E019-11D5-929B-00C0DF256EC4}
  9
$EXTNAMES
290
     1
  9
$PSVPSCALE
 40
0.0
  9
$OLESTARTUP
290
     0
  0
ENDSEC
  0
SECTION
  2
CLASSES
  0
CLASS
  1
ACDBDICTIONARYWDFLT
  2
AcDbDictionaryWithDefault
  3
ObjectDBX Classes
 90
        0
280
     0
281
     0
  0
CLASS
  1
VISUALSTYLE
  2
AcDbVisualStyle
  3
ObjectDBX Classes
 90
     4095
280
     0
281
     0
  0
CLASS
  1
MATERIAL
  2
AcDbMaterial
  3
ObjectDBX Classes
 90
     1153
280
     0
281
     0
  0
CLASS
  1
ACDBPLACEHOLDER
  2
AcDbPlaceHolder
  3
ObjectDBX Classes
 90
        0
280
     0
281
     0
  0
CLASS
  1
LAYOUT
  2
AcDbLayout
  3
ObjectDBX Classes
 90
        0
280
     0
281
     0
  0
ENDSEC
  0
SECTION
  2
TABLES
  0
TABLE
  2
VPORT
  5
8
330
0
100
AcDbSymbolTable
 70
     1
  0
VPORT
  5
29
330
8
100
AcDbSymbolTableRecord
100
AcDbViewportTableRecord
  2
*Active
 70
     0
 10
0.0
 20
0.0
 11
1.0
 21
1.0
 12
105.0
 22
148.5
 13
0.0
 23
0.0
 14
10.0
 24
10.0
 15
10.0
 25
10.0
 16
0.0
 26
0.0
 36
1.0
 17
0.0
 27
0.0
 37
0.0
 40
297.0
 41
0.7070707071
 42
50.0
 43
0.0
 44
0.0
 50
0.0
 51
0.0
 71
     0
 72
  2000
 73
     1
 74
     3
 75
     0
 76
     0
 77
     0
 78
     0
281
     0
 65
     1
110
0.0
120
0.0
130
0.0
111
1.0
121
0.0
131
0.0
112
0.0
122
1.0
132
0.0
 79
     0
146
0.0
  0
ENDTAB
  0
TABLE
  2
LTYPE
  5
5
330
0
100
AcDbSymbolTable
 70
     6
  0
LTYPE
  5
14
330
5
100
AcDbSymbolTableRecord
100
AcDbLinetypeTableRecord
  2
ByBlock
 70
     0
  3

 72
    65
 73
     0
 40
0.0
  0
LTYPE
  5
15
330
5
100
AcDbSymbolTableRecord
100
AcDbLinetypeTableRecord
  2
ByLayer
 70
     0
  3

 72
    65
 73
     0
 40
0.0
  0
LTYPE
  5
16
330
5
100
AcDbSymbolTableRecord
100
AcDbLinetypeTableRecord
  2
Continuous
 70
     0
  3
Solid line
 72
    65
 73
     0
 40
0.0
  0
LTYPE
  5
3F
330
5
100
AcDbSymbolTableRecord
100
AcDbLinetypeTableRecord
  2
HIDDEN
 70
     0
  3
Hidden __ __ __ __ __ __ __ __ __ __ __ __ __ __
 72
    65
 73
     2
 40
1.905
 49
1.27
 74
     0
 49
-0.635
 74
     0
  0
LTYPE
  5
40
330
5
100
AcDbSymbolTableRecord
100
AcDbLinetypeTableRecord
  2
PHANTOM
 70
     0
  3
Phantom ______  __  __  ______  __  __  ______
 72
    65
 73
     6
 40
12.7
 49
6.35
 74
     0
 49
-1.27
 74
     0
 49
1.27
 74
     0
 49
-1.27
 74
     0
 49
1.27
 74
     0
 49
-1.27
 74
     0
  0
LTYPE
  5
41
330
5
100
AcDbSymbolTableRecord
100
AcDbLinetypeTableRecord
  2
CENTER
 70
     0
  3
Center ____ _ ____ _ ____ _ ____ _ ____ _ ____
 72
    65
 73
     4
 40
10.16
 49
6.35
 74
     0
 49
-1.27
 74
     0
 49
1.27
 74
     0
 49
-1.27
 74
     0
  0
LTYPE
  5
42
330
5
100
AcDbSymbolTableRecord
100
AcDbLinetypeTableRecord
  2
CENTERX2
 70
     0
  3
Center (2x) ________  __  ________  __  _____
 72
    65
 73
     4
 40
20.32
 49
12.7
 74
     0
 49
-2.54
 74
     0
 49
2.54
 74
     0
 49
-2.54
 74
     0
  0
LTYPE
  5
43
330
5
100
AcDbSymbolTableRecord
100
AcDbLinetypeTableRecord
  2
DOT2
 70
     0
  3
Dot (.5x) ........................................
 72
    65
 73
     2
 40
0.635
 49
0.0
 74
     0
 49
-0.635
 74
     0
  0
ENDTAB
  0
TABLE
  2
LAYER
  5
2
330
0
100
AcDbSymbolTable
 70
    26
  0
LAYER
  5
10
330
2
100
AcDbSymbolTableRecord
100
AcDbLayerTableRecord
  2
0
 70
     0
 62
     7
  6
Continuous
370
    -3
390
F
  0
LAYER
  5
44
330
2
100
AcDbSymbolTableRecord
100
AcDbLayerTableRecord
  2
SLD-0
 70
     0
 62
     1
  6
Continuous
370
    -3
390
F
  0
LAYER
  5
45
330
2
100
AcDbSymbolTableRecord
100
AcDbLayerTableRecord
  2
POČÁTEK
 70
     0
 62
    34
  6
Continuous
370
    -3
390
F
  0
LAYER
  5
46
330
2
100
AcDbSymbolTableRecord
100
AcDbLayerTableRecord
  2
OBRYS
 70
     0
 62
     7
  6
Continuous
370
    15
390
F
  0
LAYER
  5
47
330
2
100
AcDbSymbolTableRecord
100
AcDbLayerTableRecord
  2
SRAFY
 70
     0
 62
     2
  6
Continuous
370
    -1
390
F
  0
LAYER
  5
48
330
2
100
AcDbSymbolTableRecord
100
AcDbLayerTableRecord
  2
KOTY
 70
     0
 62
    82
  6
Continuous
370
    -3
390
F
  0
LAYER
  5
49
330
2
100
AcDbSymbolTableRecord
100
AcDbLayerTableRecord
  2
OSY
 70
     0
 62
     1
  6
CENTERX2
370
    -3
390
F
  0
LAYER
  5
4A
330
2
100
AcDbSymbolTableRecord
100
AcDbLayerTableRecord
  2
REZY
 70
     0
 62
     1
  6
CENTERX2
370
    -3
390
F
  0
LAYER
  5
4B
330
2
100
AcDbSymbolTableRecord
100
AcDbLayerTableRecord
  2
TENKA
 70
     0
 62
   131
  6
Continuous
370
    -3
390
F
  0
LAYER
  5
4C
330
2
100
AcDbSymbolTableRecord
100
AcDbLayerTableRecord
  2
TEXT
 70
     0
 62
    40
  6
Continuous
370
    -3
390
F
  0
LAYER
  5
4D
330
2
100
AcDbSymbolTableRecord
100
AcDbLayerTableRecord
  2
STŘEDOVÉ
 70
     0
 62
     1
  6
CENTERX2
370
    -3
390
F
  0
LAYER
  5
4E
330
2
100
AcDbSymbolTableRecord
100
AcDbLayerTableRecord
  2
OPRACOVÁNÍ
 70
     0
 62
   212
  6
Continuous
370
    -3
390
F
  0
LAYER
  5
4F
330
2
100
AcDbSymbolTableRecord
100
AcDbLayerTableRecord
  2
TABULKA
 70
     0
 62
    41
  6
Continuous
370
    -1
390
F
  0
LAYER
  5
50
330
2
100
AcDbSymbolTableRecord
100
AcDbLayerTableRecord
  2
GEOMETRICKÉ
 70
     0
 62
   212
  6
Continuous
370
    -3
390
F
  0
LAYER
  5
51
330
2
100
AcDbSymbolTableRecord
100
AcDbLayerTableRecord
  2
ČÁRY
 70
     0
 62
     2
  6
Continuous
370
    -3
390
F
  0
LAYER
  5
52
330
2
100
AcDbSymbolTableRecord
100
AcDbLayerTableRecord
  2
POPIS
 70
     0
 62
     3
  6
Continuous
370
    -1
390
F
  0
LAYER
  5
53
330
2
100
AcDbSymbolTableRecord
100
AcDbLayerTableRecord
  2
ZÁKLADNA
 70
     0
 62
   212
  6
Continuous
370
    -1
390
F
  0
LAYER
  5
54
330
2
100
AcDbSymbolTableRecord
100
AcDbLayerTableRecord
  2
STŘEDY
 70
     0
 62
     1
  6
CENTERX2
370
    -3
390
F
  0
LAYER
  5
55
330
2
100
AcDbSymbolTableRecord
100
AcDbLayerTableRecord
  2
KOLÍK
 70
     0
 62
     9
  6
Continuous
370
    -3
390
F
  0
LAYER
  5
56
330
2
100
AcDbSymbolTableRecord
100
AcDbLayerTableRecord
  2
PŘERUŠENÍ
 70
     0
 62
     4
  6
PHANTOM
370
    -3
390
F
  0
LAYER
  5
57
330
2
100
AcDbSymbolTableRecord
100
AcDbLayerTableRecord
  2
DETAIL
 70
     0
 62
     6
  6
Continuous
370
    -3
390
F
  0
LAYER
  5
58
330
2
100
AcDbSymbolTableRecord
100
AcDbLayerTableRecord
  2
ZÁVIT
 70
     0
 62
     2
  6
Continuous
370
    -3
390
F
  0
LAYER
  5
59
330
2
100
AcDbSymbolTableRecord
100
AcDbLayerTableRecord
  2
HRANICE
 70
     0
 62
     6
  6
Continuous
370
    -1
390
F
  0
LAYER
  5
5A
330
2
100
AcDbSymbolTableRecord
100
AcDbLayerTableRecord
  2
LOMENÉ
 70
     0
 62
     6
  6
Continuous
370
    -1
390
F
  0
LAYER
  5
5B
330
2
100
AcDbSymbolTableRecord
100
AcDbLayerTableRecord
  2
TEČNÉ
 70
     0
 62
     6
  6
Continuous
370
    -3
390
F
  0
LAYER
  5
5C
330
2
100
AcDbSymbolTableRecord
100
AcDbLayerTableRecord
  2
SKRYTE
 70
     0
 62
     4
  6
Continuous
370
    -3
390
F
  0
ENDTAB
  0
TABLE
  2
STYLE
  5
3
330
0
100
AcDbSymbolTable
 70
     3
  0
STYLE
  5
11
330
3
100
AcDbSymbolTableRecord
100
AcDbTextStyleTableRecord
  2
Standard
 70
     0
 40
0.0
 41
1.0
 50
0.0
 71
     0
 42
2.5
  3
txt
  4

  0
STYLE
  5
5D
330
3
100
AcDbSymbolTableRecord
100
AcDbTextStyleTableRecord
  2
SLDTEXTSTYLE0
 70
     0
 40
0.0
 41
0.7
 50
0.0
 71
     0
 42
0.2
  3
TXT
  4

  0
STYLE
  5
60
330
3
100
AcDbSymbolTableRecord
100
AcDbTextStyleTableRecord
  2
SLDTEXTSTYLE1
 70
     0
 40
0.0
 41
0.75
 50
0.0
 71
     0
 42
0.2
  3
TXT
  4

  0
ENDTAB
  0
TABLE
  2
VIEW
  5
6
330
0
100
AcDbSymbolTable
 70
     0
  0
ENDTAB
  0
TABLE
  2
UCS
  5
7
330
0
100
AcDbSymbolTable
 70
     0
  0
ENDTAB
  0
TABLE
  2
APPID
  5
9
330
0
100
AcDbSymbolTable
 70
     1
  0
APPID
  5
12
330
9
100
AcDbSymbolTableRecord
100
AcDbRegAppTableRecord
  2
ACAD
 70
     0
  0
ENDTAB
  0
TABLE
  2
DIMSTYLE
  5
A
330
0
100
AcDbSymbolTable
 70
     4
100
AcDbDimStyleTable
  0
DIMSTYLE
105
27
330
A
100
AcDbSymbolTableRecord
100
AcDbDimStyleTableRecord
  2
ISO-25
 70
     0
 41
2.5
 42
0.625
 43
3.75
 44
1.25
 73
     0
 74
     0
 77
     1
 78
     8
140
2.5
141
2.5
143
0.0393700787
147
0.625
171
     3
172
     1
178
     0
271
     2
272
     2
274
     3
278
    44
283
     0
284
     8
340
11
  0
DIMSTYLE
105
F7
102
{ACAD_REACTORS
330
F6
330
101
330
10B
330
1C1
330
1D7
330
1EB
330
295
330
2AB
330
2B5
330
2C9
102
}
330
A
100
AcDbSymbolTableRecord
100
AcDbDimStyleTableRecord
  2
SLDDIMSTYLE0
 70
     0
 41
2.5
 44
0.0
 45
0.000000001
 73
     0
 74
     0
 77
     1
 78
    12
 79
     3
140
2.5
147
0.625
173
     1
178
     0
271
     0
272
     2
276
     2
284
    12
340
60
  0
DIMSTYLE
105
116
102
{ACAD_REACTORS
330
115
330
1CB
330
29F
102
}
330
A
100
AcDbSymbolTableRecord
100
AcDbDimStyleTableRecord
  2
SLDDIMSTYLE1
 70
     0
 41
2.5
 44
0.0
 45
0.000000001
 73
     0
 74
     0
 77
     1
 78
    12
 79
     3
140
2.5
147
0.625
172
     1
173
     1
178
     0
271
     0
272
     2
276
     2
284
    12
289
     0
340
60
  0
DIMSTYLE
105
123
102
{ACAD_REACTORS
330
122
330
1E1
330
2BF
102
}
330
A
100
AcDbSymbolTableRecord
100
AcDbDimStyleTableRecord
  2
SLDDIMSTYLE2
 70
     0
 41
2.5
 44
0.0
 45
0.000000001
 73
     0
 74
     0
 77
     1
 78
    12
 79
     3
140
2.5
147
0.625
173
     1
178
     0
271
     1
272
     2
276
     2
284
    12
340
60
  0
ENDTAB
  0
TABLE
  2
BLOCK_RECORD
  5
1
330
0
100
AcDbSymbolTable
 70
    17
  0
BLOCK_RECORD
  5
1F
330
1
100
AcDbSymbolTableRecord
100
AcDbBlockTableRecord
  2
*Model_Space
340
22
  0
BLOCK_RECORD
  5
1B
330
1
100
AcDbSymbolTableRecord
100
AcDbBlockTableRecord
  2
*Paper_Space
340
1E
  0
BLOCK_RECORD
  5
23
330
1
100
AcDbSymbolTableRecord
100
AcDbBlockTableRecord
  2
*Paper_Space0
340
26
  0
BLOCK_RECORD
  5
F8
330
1
100
AcDbSymbolTableRecord
100
AcDbBlockTableRecord
  2
*D1
340
0
  0
BLOCK_RECORD
  5
102
330
1
100
AcDbSymbolTableRecord
100
AcDbBlockTableRecord
  2
*D2
340
0
  0
BLOCK_RECORD
  5
10C
330
1
100
AcDbSymbolTableRecord
100
AcDbBlockTableRecord
  2
*D3
340
0
  0
BLOCK_RECORD
  5
117
330
1
100
AcDbSymbolTableRecord
100
AcDbBlockTableRecord
  2
*D4
340
0
  0
BLOCK_RECORD
  5
124
330
1
100
AcDbSymbolTableRecord
100
AcDbBlockTableRecord
  2
*D5
340
0
  0
BLOCK_RECORD
  5
1C2
330
1
100
AcDbSymbolTableRecord
100
AcDbBlockTableRecord
  2
*D6
340
0
  0
BLOCK_RECORD
  5
1CC
330
1
100
AcDbSymbolTableRecord
100
AcDbBlockTableRecord
  2
*D7
340
0
  0
BLOCK_RECORD
  5
1D8
330
1
100
AcDbSymbolTableRecord
100
AcDbBlockTableRecord
  2
*D8
340
0
  0
BLOCK_RECORD
  5
1E2
330
1
100
AcDbSymbolTableRecord
100
AcDbBlockTableRecord
  2
*D9
340
0
  0
BLOCK_RECORD
  5
1EC
330
1
100
AcDbSymbolTableRecord
100
AcDbBlockTableRecord
  2
*D10
340
0
  0
BLOCK_RECORD
  5
296
330
1
100
AcDbSymbolTableRecord
100
AcDbBlockTableRecord
  2
*D11
340
0
  0
BLOCK_RECORD
  5
2A0
330
1
100
AcDbSymbolTableRecord
100
AcDbBlockTableRecord
  2
*D12
340
0
  0
BLOCK_RECORD
  5
2AC
330
1
100
AcDbSymbolTableRecord
100
AcDbBlockTableRecord
  2
*D13
340
0
  0
BLOCK_RECORD
  5
2B6
330
1
100
AcDbSymbolTableRecord
100
AcDbBlockTableRecord
  2
*D14
340
0
  0
BLOCK_RECORD
  5
2C0
330
1
100
AcDbSymbolTableRecord
100
AcDbBlockTableRecord
  2
*D15
340
0
  0
BLOCK_RECORD
  5
2CA
330
1
100
AcDbSymbolTableRecord
100
AcDbBlockTableRecord
  2
*D16
340
0
  0
ENDTAB
  0
ENDSEC
  0
SECTION
  2
BLOCKS
  0
BLOCK
  5
20
330
1F
100
AcDbEntity
  8
0
100
AcDbBlockBegin
  2
*Model_Space
 70
     0
 10
0.0
 20
0.0
 30
0.0
  3
*Model_Space
  1

  0
ENDBLK
  5
21
330
1F
100
AcDbEntity
  8
0
100
AcDbBlockEnd
  0
BLOCK
  5
1C
330
1B
100
AcDbEntity
 67
     1
  8
0
100
AcDbBlockBegin
  2
*Paper_Space
 70
     0
 10
0.0
 20
0.0
 30
0.0
  3
*Paper_Space
  1

  0
ENDBLK
  5
1D
330
1B
100
AcDbEntity
 67
     1
  8
0
100
AcDbBlockEnd
  0
BLOCK
  5
24
330
23
100
AcDbEntity
  8
0
100
AcDbBlockBegin
  2
*Paper_Space0
 70
     0
 10
0.0
 20
0.0
 30
0.0
  3
*Paper_Space0
  1

  0
ENDBLK
  5
25
330
23
100
AcDbEntity
  8
0
100
AcDbBlockEnd
  0
BLOCK
  5
F9
330
F8
100
AcDbEntity
  8
0
100
AcDbBlockBegin
  2
*D1
 70
     1
 10
0.0
 20
0.0
 30
0.0
  3
*D1
  1

  0
SOLID
  5
FB
330
F8
100
AcDbEntity
  8
KOTY
100
AcDbTrace
 10
134.5166838946
 20
180.4609458802
 30
0.0
 11
134.13206851
 21
177.9609458802
 31
0.0
 12
134.9012992792
 22
177.9609458802
 32
0.0
 13
134.9012992792
 23
177.9609458802
 33
0.0
  0
SOLID
  5
FC
330
F8
100
AcDbEntity
  8
KOTY
100
AcDbTrace
 10
134.5166838946
 20
111.4609458802
 30
0.0
 11
134.9012992792
 21
113.9609458802
 31
0.0
 12
134.13206851
 22
113.9609458802
 32
0.0
 13
134.13206851
 23
113.9609458802
 33
0.0
  0
LINE
  5
FD
330
F8
100
AcDbEntity
  8
KOTY
100
AcDbLine
 10
141.0166838946
 20
180.4609458802
 30
0.0
 11
133.5166838946
 21
180.4609458802
 31
0.0
  0
LINE
  5
FE
330
F8
100
AcDbEntity
  8
KOTY
100
AcDbLine
 10
141.0166838946
 20
111.4609458802
 30
0.0
 11
133.5166838946
 21
111.4609458802
 31
0.0
  0
LINE
  5
FF
330
F8
100
AcDbEntity
  8
KOTY
100
AcDbLine
 10
134.5166838946
 20
180.4609458802
 30
0.0
 11
134.5166838946
 21
111.4609458802
 31
0.0
  0
MTEXT
  5
100
330
F8
100
AcDbEntity
  8
KOTY
100
AcDbMText
 10
131.2940146034
 20
143.0980984701
 30
-49.9
 40
2.5
 41
0.0
 71
     1
 72
     1
  1
69
  7
SLDTEXTSTYLE1
 11
-9.708730276744010E-15
 21
1.0
 31
0.0
 73
     1
 44
1.0
  0
ENDBLK
  5
FA
330
F8
100
AcDbEntity
  8
0
100
AcDbBlockEnd
  0
BLOCK
  5
103
330
102
100
AcDbEntity
  8
0
100
AcDbBlockBegin
  2
*D2
 70
     1
 10
0.0
 20
0.0
 30
0.0
  3
*D2
  1

  0
SOLID
  5
105
330
102
100
AcDbEntity
  8
KOTY
100
AcDbTrace
 10
168.5166838946
 20
130.9609458802
 30
0.0
 11
168.9012992792
 21
133.4609458802
 31
0.0
 12
168.13206851
 22
133.4609458802
 32
0.0
 13
168.13206851
 23
133.4609458802
 33
0.0
  0
SOLID
  5
106
330
102
100
AcDbEntity
  8
KOTY
100
AcDbTrace
 10
168.5166838946
 20
160.9609458802
 30
0.0
 11
168.13206851
 21
158.4609458802
 31
0.0
 12
168.9012992792
 22
158.4609458802
 32
0.0
 13
168.9012992792
 23
158.4609458802
 33
0.0
  0
LINE
  5
107
330
102
100
AcDbEntity
  8
KOTY
100
AcDbLine
 10
161.3166838946
 20
130.9609458802
 30
0.0
 11
169.5166838946
 21
130.9609458802
 31
0.0
  0
LINE
  5
108
330
102
100
AcDbEntity
  8
KOTY
100
AcDbLine
 10
161.3166838946
 20
160.9609458802
 30
0.0
 11
169.5166838946
 21
160.9609458802
 31
0.0
  0
LINE
  5
109
330
102
100
AcDbEntity
  8
KOTY
100
AcDbLine
 10
168.5166838946
 20
130.9609458802
 30
0.0
 11
168.5166838946
 21
160.9609458802
 31
0.0
  0
MTEXT
  5
10A
330
102
100
AcDbEntity
  8
KOTY
100
AcDbMText
 10
165.2940146034
 20
143.0980984701
 30
-49.9
 40
2.5
 41
0.0
 71
     1
 72
     1
  1
30
  7
SLDTEXTSTYLE1
 11
6.123233995736766E-17
 21
1.0
 31
0.0
 73
     1
 44
1.0
  0
ENDBLK
  5
104
330
102
100
AcDbEntity
  8
0
100
AcDbBlockEnd
  0
BLOCK
  5
10D
330
10C
100
AcDbEntity
  8
0
100
AcDbBlockBegin
  2
*D3
 70
     1
 10
0.0
 20
0.0
 30
0.0
  3
*D3
  1

  0
SOLID
  5
10F
330
10C
100
AcDbEntity
  8
KOTY
100
AcDbTrace
 10
140.5166838946
 20
192.4609458802
 30
0.0
 11
143.0166838946
 21
192.0763304956
 31
0.0
 12
143.0166838946
 22
192.8455612648
 32
0.0
 13
143.0166838946
 23
192.8455612648
 33
0.0
  0
SOLID
  5
110
330
10C
100
AcDbEntity
  8
KOTY
100
AcDbTrace
 10
162.5166838946
 20
192.4609458802
 30
0.0
 11
160.0166838946
 21
192.8455612648
 31
0.0
 12
160.0166838946
 22
192.0763304956
 32
0.0
 13
160.0166838946
 23
192.0763304956
 33
0.0
  0
LINE
  5
111
330
10C
100
AcDbEntity
  8
KOTY
100
AcDbLine
 10
140.5166838946
 20
179.9609458802
 30
0.0
 11
140.5166838946
 21
193.4609458802
 31
0.0
  0
LINE
  5
112
330
10C
100
AcDbEntity
  8
KOTY
100
AcDbLine
 10
162.5166838946
 20
179.9609458802
 30
0.0
 11
162.5166838946
 21
193.4609458802
 31
0.0
  0
LINE
  5
113
330
10C
100
AcDbEntity
  8
KOTY
100
AcDbLine
 10
140.5166838946
 20
192.4609458802
 30
0.0
 11
162.5166838946
 21
192.4609458802
 31
0.0
  0
MTEXT
  5
114
330
10C
100
AcDbEntity
  8
KOTY
100
AcDbMText
 10
148.6538364844
 20
195.6836151715
 30
-49.9
 40
2.5
 41
0.0
 71
     1
 72
     1
  1
22
  7
SLDTEXTSTYLE1
 73
     1
 44
1.0
  0
ENDBLK
  5
10E
330
10C
100
AcDbEntity
  8
0
100
AcDbBlockEnd
  0
BLOCK
  5
118
330
117
100
AcDbEntity
  8
0
100
AcDbBlockBegin
  2
*D4
 70
     1
 10
0.0
 20
0.0
 30
0.0
  3
*D4
  1

  0
SOLID
  5
11A
330
117
100
AcDbEntity
  8
KOTY
100
AcDbTrace
 10
144.0166838946
 20
186.4609458802
 30
0.0
 11
141.5166838946
 21
186.8455612648
 31
0.0
 12
141.5166838946
 22
186.0763304956
 32
0.0
 13
141.5166838946
 23
186.0763304956
 33
0.0
  0
SOLID
  5
11B
330
117
100
AcDbEntity
  8
KOTY
100
AcDbTrace
 10
159.0166838946
 20
186.4609458802
 30
0.0
 11
161.5166838946
 21
186.0763304956
 31
0.0
 12
161.5166838946
 22
186.8455612648
 32
0.0
 13
161.5166838946
 23
186.8455612648
 33
0.0
  0
LINE
  5
11C
330
117
100
AcDbEntity
  8
KOTY
100
AcDbLine
 10
144.0166838946
 20
179.9609458802
 30
0.0
 11
144.0166838946
 21
187.4609458802
 31
0.0
  0
LINE
  5
11D
330
117
100
AcDbEntity
  8
KOTY
100
AcDbLine
 10
159.0166838946
 20
179.9609458802
 30
0.0
 11
159.0166838946
 21
187.4609458802
 31
0.0
  0
LINE
  5
11E
330
117
100
AcDbEntity
  8
KOTY
100
AcDbLine
 10
144.0166838946
 20
186.4609458802
 30
0.0
 11
139.2089915869
 21
186.4609458802
 31
0.0
  0
LINE
  5
11F
330
117
100
AcDbEntity
  8
KOTY
100
AcDbLine
 10
144.0166838946
 20
186.4609458802
 30
0.0
 11
159.0166838946
 21
186.4609458802
 31
0.0
  0
LINE
  5
120
330
117
100
AcDbEntity
  8
KOTY
100
AcDbLine
 10
159.0166838946
 20
186.4609458802
 30
0.0
 11
163.8243762023
 21
186.4609458802
 31
0.0
  0
MTEXT
  5
121
330
117
100
AcDbEntity
  8
KOTY
100
AcDbMText
 10
148.6538364844
 20
189.6836151715
 30
-49.9
 40
2.5
 41
0.0
 71
     1
 72
     1
  1
15
  7
SLDTEXTSTYLE1
 73
     1
 44
1.0
  0
ENDBLK
  5
119
330
117
100
AcDbEntity
  8
0
100
AcDbBlockEnd
  0
BLOCK
  5
125
330
124
100
AcDbEntity
  8
0
100
AcDbBlockBegin
  2
*D5
 70
     1
 10
0.0
 20
0.0
 30
0.0
  3
*D5
  1

  0
SOLID
  5
127
330
124
100
AcDbEntity
  8
KOTY
100
AcDbTrace
 10
168.5166838946
 20
180.4609458802
 30
0.0
 11
168.13206851
 21
177.9609458802
 31
0.0
 12
168.9012992792
 22
177.9609458802
 32
0.0
 13
168.9012992792
 23
177.9609458802
 33
0.0
  0
SOLID
  5
128
330
124
100
AcDbEntity
  8
KOTY
100
AcDbTrace
 10
168.5166838946
 20
162.1609458802
 30
0.0
 11
168.9012992792
 21
164.6609458802
 31
0.0
 12
168.13206851
 22
164.6609458802
 32
0.0
 13
168.13206851
 23
164.6609458802
 33
0.0
  0
LINE
  5
129
330
124
100
AcDbEntity
  8
KOTY
100
AcDbLine
 10
162.0166838946
 20
180.4609458802
 30
0.0
 11
169.5166838946
 21
180.4609458802
 31
0.0
  0
LINE
  5
12A
330
124
100
AcDbEntity
  8
KOTY
100
AcDbLine
 10
160.3166838946
 20
162.1609458802
 30
0.0
 11
169.5166838946
 21
162.1609458802
 31
0.0
  0
LINE
  5
12B
330
124
100
AcDbEntity
  8
KOTY
100
AcDbLine
 10
168.5166838946
 20
180.4609458802
 30
0.0
 11
168.5166838946
 21
162.1609458802
 31
0.0
  0
MTEXT
  5
12C
330
124
100
AcDbEntity
  8
KOTY
100
AcDbMText
 10
165.2940146034
 20
167.0626821002
 30
-49.9
 40
2.5
 41
0.0
 71
     1
 72
     1
  1
18,3
  7
SLDTEXTSTYLE1
 11
-7.044195017643634E-15
 21
1.0
 31
0.0
 73
     1
 44
1.0
  0
ENDBLK
  5
126
330
124
100
AcDbEntity
  8
0
100
AcDbBlockEnd
  0
BLOCK
  5
1C3
330
1C2
100
AcDbEntity
  8
0
100
AcDbBlockBegin
  2
*D6
 70
     1
 10
0.0
 20
0.0
 30
0.0
  3
*D6
  1

  0
SOLID
  5
1C5
330
1C2
100
AcDbEntity
  8
KOTY
100
AcDbTrace
 10
36.6411059224
 20
267.2157116426
 30
0.0
 11
36.2564905378
 21
264.7157116426
 31
0.0
 12
37.025721307
 22
264.7157116426
 32
0.0
 13
37.025721307
 23
264.7157116426
 33
0.0
  0
SOLID
  5
1C6
330
1C2
100
AcDbEntity
  8
KOTY
100
AcDbTrace
 10
36.6411059224
 20
182.2157116426
 30
0.0
 11
37.025721307
 21
184.7157116426
 31
0.0
 12
36.2564905378
 22
184.7157116426
 32
0.0
 13
36.2564905378
 23
184.7157116426
 33
0.0
  0
LINE
  5
1C7
330
1C2
100
AcDbEntity
  8
KOTY
100
AcDbLine
 10
43.1411059224
 20
267.2157116426
 30
0.0
 11
35.6411059224
 21
267.2157116426
 31
0.0
  0
LINE
  5
1C8
330
1C2
100
AcDbEntity
  8
KOTY
100
AcDbLine
 10
43.1411059224
 20
182.2157116426
 30
0.0
 11
35.6411059224
 21
182.2157116426
 31
0.0
  0
LINE
  5
1C9
330
1C2
100
AcDbEntity
  8
KOTY
100
AcDbLine
 10
36.6411059224
 20
267.2157116426
 30
0.0
 11
36.6411059224
 21
182.2157116426
 31
0.0
  0
MTEXT
  5
1CA
330
1C2
100
AcDbEntity
  8
KOTY
100
AcDbMText
 10
33.4184366312
 20
221.8528642325
 30
-49.9
 40
2.5
 41
0.0
 71
     1
 72
     1
  1
85
  7
SLDTEXTSTYLE1
 11
-4.379659758543259E-15
 21
1.0
 31
0.0
 73
     1
 44
1.0
  0
ENDBLK
  5
1C4
330
1C2
100
AcDbEntity
  8
0
100
AcDbBlockEnd
  0
BLOCK
  5
1CD
330
1CC
100
AcDbEntity
  8
0
100
AcDbBlockBegin
  2
*D7
 70
     1
 10
0.0
 20
0.0
 30
0.0
  3
*D7
  1

  0
SOLID
  5
1CF
330
1CC
100
AcDbEntity
  8
KOTY
100
AcDbTrace
 10
46.1411059224
 20
273.2157116426
 30
0.0
 11
43.6411059224
 21
273.6003270272
 31
0.0
 12
43.6411059224
 22
272.831096258
 32
0.0
 13
43.6411059224
 23
272.831096258
 33
0.0
  0
SOLID
  5
1D0
330
1CC
100
AcDbEntity
  8
KOTY
100
AcDbTrace
 10
61.1411059224
 20
273.2157116426
 30
0.0
 11
63.6411059224
 21
272.831096258
 31
0.0
 12
63.6411059224
 22
273.6003270272
 32
0.0
 13
63.6411059224
 23
273.6003270272
 33
0.0
  0
LINE
  5
1D1
330
1CC
100
AcDbEntity
  8
KOTY
100
AcDbLine
 10
46.1411059224
 20
266.7157116426
 30
0.0
 11
46.1411059224
 21
274.2157116426
 31
0.0
  0
LINE
  5
1D2
330
1CC
100
AcDbEntity
  8
KOTY
100
AcDbLine
 10
61.1411059224
 20
266.7157116426
 30
0.0
 11
61.1411059224
 21
274.2157116426
 31
0.0
  0
LINE
  5
1D3
330
1CC
100
AcDbEntity
  8
KOTY
100
AcDbLine
 10
46.1411059224
 20
273.2157116426
 30
0.0
 11
41.3334136147
 21
273.2157116426
 31
0.0
  0
LINE
  5
1D4
330
1CC
100
AcDbEntity
  8
KOTY
100
AcDbLine
 10
46.1411059224
 20
273.2157116426
 30
0.0
 11
61.1411059224
 21
273.2157116426
 31
0.0
  0
LINE
  5
1D5
330
1CC
100
AcDbEntity
  8
KOTY
100
AcDbLine
 10
61.1411059224
 20
273.2157116426
 30
0.0
 11
65.9487982301
 21
273.2157116426
 31
0.0
  0
MTEXT
  5
1D6
330
1CC
100
AcDbEntity
  8
KOTY
100
AcDbMText
 10
50.7782585122
 20
276.4383809338
 30
-49.9
 40
2.5
 41
0.0
 71
     1
 72
     1
  1
15
  7
SLDTEXTSTYLE1
 73
     1
 44
1.0
  0
ENDBLK
  5
1CE
330
1CC
100
AcDbEntity
  8
0
100
AcDbBlockEnd
  0
BLOCK
  5
1D9
330
1D8
100
AcDbEntity
  8
0
100
AcDbBlockBegin
  2
*D8
 70
     1
 10
0.0
 20
0.0
 30
0.0
  3
*D8
  1

  0
SOLID
  5
1DB
330
1D8
100
AcDbEntity
  8
KOTY
100
AcDbTrace
 10
64.6411059224
 20
279.2157116426
 30
0.0
 11
62.1411059224
 21
279.6003270272
 31
0.0
 12
62.1411059224
 22
278.831096258
 32
0.0
 13
62.1411059224
 23
278.831096258
 33
0.0
  0
SOLID
  5
1DC
330
1D8
100
AcDbEntity
  8
KOTY
100
AcDbTrace
 10
42.6411059224
 20
279.2157116426
 30
0.0
 11
45.1411059224
 21
278.831096258
 31
0.0
 12
45.1411059224
 22
279.6003270272
 32
0.0
 13
45.1411059224
 23
279.6003270272
 33
0.0
  0
LINE
  5
1DD
330
1D8
100
AcDbEntity
  8
KOTY
100
AcDbLine
 10
64.6411059224
 20
266.7157116426
 30
0.0
 11
64.6411059224
 21
280.2157116426
 31
0.0
  0
LINE
  5
1DE
330
1D8
100
AcDbEntity
  8
KOTY
100
AcDbLine
 10
42.6411059224
 20
266.7157116426
 30
0.0
 11
42.6411059224
 21
280.2157116426
 31
0.0
  0
LINE
  5
1DF
330
1D8
100
AcDbEntity
  8
KOTY
100
AcDbLine
 10
64.6411059224
 20
279.2157116426
 30
0.0
 11
42.6411059224
 21
279.2157116426
 31
0.0
  0
MTEXT
  5
1E0
330
1D8
100
AcDbEntity
  8
KOTY
100
AcDbMText
 10
50.7782585122
 20
282.4383809338
 30
-49.9
 40
2.5
 41
0.0
 71
     1
 72
     1
  1
22
  7
SLDTEXTSTYLE1
 73
     1
 44
1.0
  0
ENDBLK
  5
1DA
330
1D8
100
AcDbEntity
  8
0
100
AcDbBlockEnd
  0
BLOCK
  5
1E3
330
1E2
100
AcDbEntity
  8
0
100
AcDbBlockBegin
  2
*D9
 70
     1
 10
0.0
 20
0.0
 30
0.0
  3
*D9
  1

  0
SOLID
  5
1E5
330
1E2
100
AcDbEntity
  8
KOTY
100
AcDbTrace
 10
70.6411059224
 20
267.2157116426
 30
0.0
 11
70.2564905378
 21
264.7157116426
 31
0.0
 12
71.025721307
 22
264.7157116426
 32
0.0
 13
71.025721307
 23
264.7157116426
 33
0.0
  0
SOLID
  5
1E6
330
1E2
100
AcDbEntity
  8
KOTY
100
AcDbTrace
 10
70.6411059224
 20
240.9157116426
 30
0.0
 11
71.025721307
 21
243.4157116426
 31
0.0
 12
70.2564905378
 22
243.4157116426
 32
0.0
 13
70.2564905378
 23
243.4157116426
 33
0.0
  0
LINE
  5
1E7
330
1E2
100
AcDbEntity
  8
KOTY
100
AcDbLine
 10
64.1411059224
 20
267.2157116426
 30
0.0
 11
71.6411059224
 21
267.2157116426
 31
0.0
  0
LINE
  5
1E8
330
1E2
100
AcDbEntity
  8
KOTY
100
AcDbLine
 10
62.4411059224
 20
240.9157116426
 30
0.0
 11
71.6411059224
 21
240.9157116426
 31
0.0
  0
LINE
  5
1E9
330
1E2
100
AcDbEntity
  8
KOTY
100
AcDbLine
 10
70.6411059224
 20
267.2157116426
 30
0.0
 11
70.6411059224
 21
240.9157116426
 31
0.0
  0
MTEXT
  5
1EA
330
1E2
100
AcDbEntity
  8
KOTY
100
AcDbMText
 10
67.4184366312
 20
249.8174478626
 30
-49.9
 40
2.5
 41
0.0
 71
     1
 72
     1
  1
26,3
  7
SLDTEXTSTYLE1
 11
-7.044195017643634E-15
 21
1.0
 31
0.0
 73
     1
 44
1.0
  0
ENDBLK
  5
1E4
330
1E2
100
AcDbEntity
  8
0
100
AcDbBlockEnd
  0
BLOCK
  5
1ED
330
1EC
100
AcDbEntity
  8
0
100
AcDbBlockBegin
  2
*D10
 70
     1
 10
0.0
 20
0.0
 30
0.0
  3
*D10
  1

  0
SOLID
  5
1EF
330
1EC
100
AcDbEntity
  8
KOTY
100
AcDbTrace
 10
70.6411059224
 20
239.7157116426
 30
0.0
 11
70.2564905378
 21
237.2157116426
 31
0.0
 12
71.025721307
 22
237.2157116426
 32
0.0
 13
71.025721307
 23
237.2157116426
 33
0.0
  0
SOLID
  5
1F0
330
1EC
100
AcDbEntity
  8
KOTY
100
AcDbTrace
 10
70.6411059224
 20
209.7157116426
 30
0.0
 11
71.025721307
 21
212.2157116426
 31
0.0
 12
70.2564905378
 22
212.2157116426
 32
0.0
 13
70.2564905378
 23
212.2157116426
 33
0.0
  0
LINE
  5
1F1
330
1EC
100
AcDbEntity
  8
KOTY
100
AcDbLine
 10
63.4411059224
 20
239.7157116426
 30
0.0
 11
71.6411059224
 21
239.7157116426
 31
0.0
  0
LINE
  5
1F2
330
1EC
100
AcDbEntity
  8
KOTY
100
AcDbLine
 10
63.4411059224
 20
209.7157116426
 30
0.0
 11
71.6411059224
 21
209.7157116426
 31
0.0
  0
LINE
  5
1F3
330
1EC
100
AcDbEntity
  8
KOTY
100
AcDbLine
 10
70.6411059224
 20
239.7157116426
 30
0.0
 11
70.6411059224
 21
209.7157116426
 31
0.0
  0
MTEXT
  5
1F4
330
1EC
100
AcDbEntity
  8
KOTY
100
AcDbMText
 10
67.4184366312
 20
221.8528642325
 30
-49.9
 40
2.5
 41
0.0
 71
     1
 72
     1
  1
30
  7
SLDTEXTSTYLE1
 11
-7.044195017643634E-15
 21
1.0
 31
0.0
 73
     1
 44
1.0
  0
ENDBLK
  5
1EE
330
1EC
100
AcDbEntity
  8
0
100
AcDbBlockEnd
  0
BLOCK
  5
297
330
296
100
AcDbEntity
  8
0
100
AcDbBlockBegin
  2
*D11
 70
     1
 10
0.0
 20
0.0
 30
0.0
  3
*D11
  1

  0
SOLID
  5
299
330
296
100
AcDbEntity
  8
KOTY
100
AcDbTrace
 10
81.6221221013
 20
104.4342671286
 30
0.0
 11
81.2375067167
 21
101.9342671286
 31
0.0
 12
82.0067374859
 22
101.9342671286
 32
0.0
 13
82.0067374859
 23
101.9342671286
 33
0.0
  0
SOLID
  5
29A
330
296
100
AcDbEntity
  8
KOTY
100
AcDbTrace
 10
81.6221221013
 20
33.4342671286
 30
0.0
 11
82.0067374859
 21
35.9342671286
 31
0.0
 12
81.2375067167
 22
35.9342671286
 32
0.0
 13
81.2375067167
 23
35.9342671286
 33
0.0
  0
LINE
  5
29B
330
296
100
AcDbEntity
  8
KOTY
100
AcDbLine
 10
75.1221221013
 20
104.4342671286
 30
0.0
 11
82.6221221013
 21
104.4342671286
 31
0.0
  0
LINE
  5
29C
330
296
100
AcDbEntity
  8
KOTY
100
AcDbLine
 10
75.1221221013
 20
33.4342671286
 30
0.0
 11
82.6221221013
 21
33.4342671286
 31
0.0
  0
LINE
  5
29D
330
296
100
AcDbEntity
  8
KOTY
100
AcDbLine
 10
81.6221221013
 20
104.4342671286
 30
0.0
 11
81.6221221013
 21
33.4342671286
 31
0.0
  0
MTEXT
  5
29E
330
296
100
AcDbEntity
  8
KOTY
100
AcDbMText
 10
78.3994528101
 20
66.2876536833
 30
50.1
 40
2.5
 41
0.0
 71
     1
 72
     1
  1
71
  7
SLDTEXTSTYLE1
 11
-7.044195017643634E-15
 21
1.0
 31
0.0
 73
     1
 44
1.0
  0
ENDBLK
  5
298
330
296
100
AcDbEntity
  8
0
100
AcDbBlockEnd
  0
BLOCK
  5
2A1
330
2A0
100
AcDbEntity
  8
0
100
AcDbBlockBegin
  2
*D12
 70
     1
 10
0.0
 20
0.0
 30
0.0
  3
*D12
  1

  0
SOLID
  5
2A3
330
2A0
100
AcDbEntity
  8
KOTY
100
AcDbTrace
 10
45.1221221013
 20
117.4342671287
 30
0.0
 11
42.6221221013
 21
117.8188825133
 31
0.0
 12
42.6221221013
 22
117.049651744
 32
0.0
 13
42.6221221013
 23
117.049651744
 33
0.0
  0
SOLID
  5
2A4
330
2A0
100
AcDbEntity
  8
KOTY
100
AcDbTrace
 10
60.1221221013
 20
117.4342671287
 30
0.0
 11
62.6221221013
 21
117.049651744
 31
0.0
 12
62.6221221013
 22
117.8188825133
 32
0.0
 13
62.6221221013
 23
117.8188825133
 33
0.0
  0
LINE
  5
2A5
330
2A0
100
AcDbEntity
  8
KOTY
100
AcDbLine
 10
45.1221221013
 20
110.9342671286
 30
0.0
 11
45.1221221013
 21
118.4342671287
 31
0.0
  0
LINE
  5
2A6
330
2A0
100
AcDbEntity
  8
KOTY
100
AcDbLine
 10
60.1221221013
 20
110.9342671286
 30
0.0
 11
60.1221221013
 21
118.4342671287
 31
0.0
  0
LINE
  5
2A7
330
2A0
100
AcDbEntity
  8
KOTY
100
AcDbLine
 10
45.1221221013
 20
117.4342671287
 30
0.0
 11
40.3144297936
 21
117.4342671287
 31
0.0
  0
LINE
  5
2A8
330
2A0
100
AcDbEntity
  8
KOTY
100
AcDbLine
 10
45.1221221013
 20
117.4342671287
 30
0.0
 11
60.1221221013
 21
117.4342671287
 31
0.0
  0
LINE
  5
2A9
330
2A0
100
AcDbEntity
  8
KOTY
100
AcDbLine
 10
60.1221221013
 20
117.4342671287
 30
0.0
 11
64.929814409
 21
117.4342671287
 31
0.0
  0
MTEXT
  5
2AA
330
2A0
100
AcDbEntity
  8
KOTY
100
AcDbMText
 10
49.2098116835
 20
120.6569364199
 30
50.1
 40
2.5
 41
0.0
 71
     1
 72
     1
  1
15
  7
SLDTEXTSTYLE1
 73
     1
 44
1.0
  0
ENDBLK
  5
2A2
330
2A0
100
AcDbEntity
  8
0
100
AcDbBlockEnd
  0
BLOCK
  5
2AD
330
2AC
100
AcDbEntity
  8
0
100
AcDbBlockBegin
  2
*D13
 70
     1
 10
0.0
 20
0.0
 30
0.0
  3
*D13
  1

  0
SOLID
  5
2AF
330
2AC
100
AcDbEntity
  8
KOTY
100
AcDbTrace
 10
41.6221221013
 20
123.4342671286
 30
0.0
 11
44.1221221013
 21
123.049651744
 31
0.0
 12
44.1221221013
 22
123.8188825133
 32
0.0
 13
44.1221221013
 23
123.8188825133
 33
0.0
  0
SOLID
  5
2B0
330
2AC
100
AcDbEntity
  8
KOTY
100
AcDbTrace
 10
75.6221221013
 20
123.4342671286
 30
0.0
 11
73.1221221013
 21
123.8188825133
 31
0.0
 12
73.1221221013
 22
123.049651744
 32
0.0
 13
73.1221221013
 23
123.049651744
 33
0.0
  0
LINE
  5
2B1
330
2AC
100
AcDbEntity
  8
KOTY
100
AcDbLine
 10
41.6221221013
 20
110.9342671286
 30
0.0
 11
41.6221221013
 21
124.4342671286
 31
0.0
  0
LINE
  5
2B2
330
2AC
100
AcDbEntity
  8
KOTY
100
AcDbLine
 10
75.6221221013
 20
110.9342671286
 30
0.0
 11
75.6221221013
 21
124.4342671286
 31
0.0
  0
LINE
  5
2B3
330
2AC
100
AcDbEntity
  8
KOTY
100
AcDbLine
 10
41.6221221013
 20
123.4342671286
 30
0.0
 11
75.6221221013
 21
123.4342671286
 31
0.0
  0
MTEXT
  5
2B4
330
2AC
100
AcDbEntity
  8
KOTY
100
AcDbMText
 10
55.7592746911
 20
126.6569364199
 30
50.1
 40
2.5
 41
0.0
 71
     1
 72
     1
  1
34
  7
SLDTEXTSTYLE1
 73
     1
 44
1.0
  0
ENDBLK
  5
2AE
330
2AC
100
AcDbEntity
  8
0
100
AcDbBlockEnd
  0
BLOCK
  5
2B7
330
2B6
100
AcDbEntity
  8
0
100
AcDbBlockBegin
  2
*D14
 70
     1
 10
0.0
 20
0.0
 30
0.0
  3
*D14
  1

  0
SOLID
  5
2B9
330
2B6
100
AcDbEntity
  8
KOTY
100
AcDbTrace
 10
29.6221221013
 20
111.4342671286
 30
0.0
 11
29.2375067167
 21
108.9342671286
 31
0.0
 12
30.0067374859
 22
108.9342671286
 32
0.0
 13
30.0067374859
 23
108.9342671286
 33
0.0
  0
SOLID
  5
2BA
330
2B6
100
AcDbEntity
  8
KOTY
100
AcDbTrace
 10
29.6221221013
 20
26.4342671286
 30
0.0
 11
30.0067374859
 21
28.9342671286
 31
0.0
 12
29.2375067167
 22
28.9342671286
 32
0.0
 13
29.2375067167
 23
28.9342671286
 33
0.0
  0
LINE
  5
2BB
330
2B6
100
AcDbEntity
  8
KOTY
100
AcDbLine
 10
42.1221221013
 20
111.4342671286
 30
0.0
 11
28.6221221013
 21
111.4342671286
 31
0.0
  0
LINE
  5
2BC
330
2B6
100
AcDbEntity
  8
KOTY
100
AcDbLine
 10
42.1221221013
 20
26.4342671286
 30
0.0
 11
28.6221221013
 21
26.4342671286
 31
0.0
  0
LINE
  5
2BD
330
2B6
100
AcDbEntity
  8
KOTY
100
AcDbLine
 10
29.6221221013
 20
111.4342671286
 30
0.0
 11
29.6221221013
 21
26.4342671286
 31
0.0
  0
MTEXT
  5
2BE
330
2B6
100
AcDbEntity
  8
KOTY
100
AcDbMText
 10
26.3994528101
 20
66.0714197185
 30
50.1
 40
2.5
 41
0.0
 71
     1
 72
     1
  1
85
  7
SLDTEXTSTYLE1
 11
-1.715124499442883E-15
 21
1.0
 31
0.0
 73
     1
 44
1.0
  0
ENDBLK
  5
2B8
330
2B6
100
AcDbEntity
  8
0
100
AcDbBlockEnd
  0
BLOCK
  5
2C1
330
2C0
100
AcDbEntity
  8
0
100
AcDbBlockBegin
  2
*D15
 70
     1
 10
0.0
 20
0.0
 30
0.0
  3
*D15
  1

  0
SOLID
  5
2C3
330
2C0
100
AcDbEntity
  8
KOTY
100
AcDbTrace
 10
35.6221221013
 20
111.4342671286
 30
0.0
 11
35.2375067167
 21
108.9342671286
 31
0.0
 12
36.0067374859
 22
108.9342671286
 32
0.0
 13
36.0067374859
 23
108.9342671286
 33
0.0
  0
SOLID
  5
2C4
330
2C0
100
AcDbEntity
  8
KOTY
100
AcDbTrace
 10
35.6221221013
 20
85.1342671286
 30
0.0
 11
36.0067374859
 21
87.6342671286
 31
0.0
 12
35.2375067167
 22
87.6342671286
 32
0.0
 13
35.2375067167
 23
87.6342671286
 33
0.0
  0
LINE
  5
2C5
330
2C0
100
AcDbEntity
  8
KOTY
100
AcDbLine
 10
42.1221221013
 20
111.4342671286
 30
0.0
 11
34.6221221013
 21
111.4342671286
 31
0.0
  0
LINE
  5
2C6
330
2C0
100
AcDbEntity
  8
KOTY
100
AcDbLine
 10
43.8221221013
 20
85.1342671286
 30
0.0
 11
34.6221221013
 21
85.1342671286
 31
0.0
  0
LINE
  5
2C7
330
2C0
100
AcDbEntity
  8
KOTY
100
AcDbLine
 10
35.6221221013
 20
111.4342671286
 30
0.0
 11
35.6221221013
 21
85.1342671286
 31
0.0
  0
MTEXT
  5
2C8
330
2C0
100
AcDbEntity
  8
KOTY
100
AcDbMText
 10
32.3994528101
 20
94.0360033486
 30
50.1
 40
2.5
 41
0.0
 71
     1
 72
     1
  1
26,3
  7
SLDTEXTSTYLE1
 11
-7.044195017643634E-15
 21
1.0
 31
0.0
 73
     1
 44
1.0
  0
ENDBLK
  5
2C2
330
2C0
100
AcDbEntity
  8
0
100
AcDbBlockEnd
  0
BLOCK
  5
2CB
330
2CA
100
AcDbEntity
  8
0
100
AcDbBlockBegin
  2
*D16
 70
     1
 10
0.0
 20
0.0
 30
0.0
  3
*D16
  1

  0
SOLID
  5
2CD
330
2CA
100
AcDbEntity
  8
KOTY
100
AcDbTrace
 10
35.6221221013
 20
83.9342671286
 30
0.0
 11
35.2375067167
 21
81.4342671286
 31
0.0
 12
36.0067374859
 22
81.4342671286
 32
0.0
 13
36.0067374859
 23
81.4342671286
 33
0.0
  0
SOLID
  5
2CE
330
2CA
100
AcDbEntity
  8
KOTY
100
AcDbTrace
 10
35.6221221013
 20
53.9342671286
 30
0.0
 11
36.0067374859
 21
56.4342671286
 31
0.0
 12
35.2375067167
 22
56.4342671286
 32
0.0
 13
35.2375067167
 23
56.4342671286
 33
0.0
  0
LINE
  5
2CF
330
2CA
100
AcDbEntity
  8
KOTY
100
AcDbLine
 10
42.8221221013
 20
83.9342671286
 30
0.0
 11
34.6221221013
 21
83.9342671286
 31
0.0
  0
LINE
  5
2D0
330
2CA
100
AcDbEntity
  8
KOTY
100
AcDbLine
 10
42.8221221013
 20
53.9342671286
 30
0.0
 11
34.6221221013
 21
53.9342671286
 31
0.0
  0
LINE
  5
2D1
330
2CA
100
AcDbEntity
  8
KOTY
100
AcDbLine
 10
35.6221221013
 20
83.9342671286
 30
0.0
 11
35.6221221013
 21
53.9342671286
 31
0.0
  0
MTEXT
  5
2D2
330
2CA
100
AcDbEntity
  8
KOTY
100
AcDbMText
 10
32.3994528101
 20
66.0714197185
 30
50.1
 40
2.5
 41
0.0
 71
     1
 72
     1
  1
30
  7
SLDTEXTSTYLE1
 11
-7.044195017643634E-15
 21
1.0
 31
0.0
 73
     1
 44
1.0
  0
ENDBLK
  5
2CC
330
2CA
100
AcDbEntity
  8
0
100
AcDbBlockEnd
  0
ENDSEC
  0
SECTION
  2
ENTITIES
  0
MTEXT
  5
5E
330
1F
100
AcDbEntity
  8
TEXT
100
AcDbMText
 10
96.1141313952
 20
233.8518382857
 30
0.0
 40
5.2916666667
 41
0.0
 71
     1
 72
     1
  1
DF A3
  7
SLDTEXTSTYLE0
 73
     1
 44
1.0
  0
MTEXT
  5
5F
330
1F
100
AcDbEntity
  8
TEXT
100
AcDbMText
 10
96.1141313952
 20
152.9466566986
 30
0.0
 40
5.2916666667
 41
0.0
 71
     1
 72
     1
  1
DF A5
  7
SLDTEXTSTYLE0
 73
     1
 44
1.0
  0
MTEXT
  5
61
330
1F
100
AcDbEntity
  8
TEXT
100
AcDbMText
 10
96.1141313952
 20
74.5260704813
 30
0.0
 40
5.2916666667
 41
0.0
 71
     1
 72
     1
  1
DF A3-12
  7
SLDTEXTSTYLE1
 73
     1
 44
1.0
  0
ARC
  5
62
330
1F
100
AcDbEntity
  8
OBRYS
100
AcDbCircle
 10
143.2166838946
 20
157.2609458802
 30
0.0
 40
0.5
100
AcDbArc
 50
270.0
 51
0.0
  0
ARC
  5
63
330
1F
100
AcDbEntity
  8
OBRYS
100
AcDbCircle
 10
143.2166838946
 20
146.0609458802
 30
0.0
 40
0.5
100
AcDbArc
 50
0.0
 51
90.0
  0
ARC
  5
64
330
1F
100
AcDbEntity
  8
OBRYS
100
AcDbCircle
 10
143.2166838946
 20
145.8609458802
 30
0.0
 40
0.5
100
AcDbArc
 50
270.0
 51
0.0
  0
ARC
  5
65
330
1F
100
AcDbEntity
  8
OBRYS
100
AcDbCircle
 10
143.2166838946
 20
134.6609458802
 30
0.0
 40
0.5
100
AcDbArc
 50
0.0
 51
90.0
  0
ARC
  5
66
330
1F
100
AcDbEntity
  8
OBRYS
100
AcDbCircle
 10
143.2166838946
 20
134.4609458802
 30
0.0
 40
0.5
100
AcDbArc
 50
270.0
 51
0.0
  0
ARC
  5
67
330
1F
100
AcDbEntity
  8
OBRYS
100
AcDbCircle
 10
159.8166838946
 20
134.4609458802
 30
0.0
 40
0.5
100
AcDbArc
 50
180.0
 51
270.0
  0
ARC
  5
68
330
1F
100
AcDbEntity
  8
OBRYS
100
AcDbCircle
 10
159.8166838946
 20
134.6609458802
 30
0.0
 40
0.5
100
AcDbArc
 50
90.0
 51
180.0
  0
ARC
  5
69
330
1F
100
AcDbEntity
  8
OBRYS
100
AcDbCircle
 10
159.8166838946
 20
145.8609458802
 30
0.0
 40
0.5
100
AcDbArc
 50
180.0
 51
270.0
  0
ARC
  5
6A
330
1F
100
AcDbEntity
  8
OBRYS
100
AcDbCircle
 10
159.8166838946
 20
146.0609458802
 30
0.0
 40
0.5
100
AcDbArc
 50
90.0
 51
180.0
  0
ARC
  5
6B
330
1F
100
AcDbEntity
  8
OBRYS
100
AcDbCircle
 10
159.8166838946
 20
157.2609458802
 30
0.0
 40
0.5
100
AcDbArc
 50
180.0
 51
270.0
  0
ARC
  5
6C
330
1F
100
AcDbEntity
  8
OBRYS
100
AcDbCircle
 10
159.8166838946
 20
157.4609458802
 30
0.0
 40
0.5
100
AcDbArc
 50
90.0
 51
180.0
  0
ARC
  5
6D
330
1F
100
AcDbEntity
  8
OBRYS
100
AcDbCircle
 10
143.2166838946
 20
157.4609458802
 30
0.0
 40
0.5
100
AcDbArc
 50
0.0
 51
90.0
  0
ARC
  5
6E
330
1F
100
AcDbEntity
  8
OBRYS
100
AcDbCircle
 10
160.8166838946
 20
119.7609458802
 30
0.0
 40
0.5
100
AcDbArc
 50
270.0
 51
0.0
  0
ARC
  5
6F
330
1F
100
AcDbEntity
  8
OBRYS
100
AcDbCircle
 10
160.3166838946
 20
128.7609458802
 30
0.0
 40
1.0
100
AcDbArc
 50
0.0
 51
90.0
  0
ARC
  5
70
330
1F
100
AcDbEntity
  8
OBRYS
100
AcDbCircle
 10
154.2166838946
 20
130.2109458802
 30
0.0
 40
0.7499999999999943
100
AcDbArc
 50
216.8698976458
 51
323.1301023542
  0
ARC
  5
71
330
1F
100
AcDbEntity
  8
OBRYS
100
AcDbCircle
 10
151.5166838946
 20
130.2109458802
 30
0.0
 40
0.7499999999999943
100
AcDbArc
 50
216.8698976458
 51
323.1301023542
  0
ARC
  5
72
330
1F
100
AcDbEntity
  8
OBRYS
100
AcDbCircle
 10
148.8166838946
 20
130.2109458802
 30
0.0
 40
0.7499999999999716
100
AcDbArc
 50
216.8698976458
 51
323.1301023542
  0
ARC
  5
73
330
1F
100
AcDbEntity
  8
OBRYS
100
AcDbCircle
 10
142.7166838946
 20
128.7609458802
 30
0.0
 40
1.0
100
AcDbArc
 50
90.0
 51
180.0
  0
ARC
  5
74
330
1F
100
AcDbEntity
  8
OBRYS
100
AcDbCircle
 10
142.2166838946
 20
119.7609458802
 30
0.0
 40
0.5
100
AcDbArc
 50
180.0
 51
270.0
  0
ARC
  5
75
330
1F
100
AcDbEntity
  8
OBRYS
100
AcDbCircle
 10
143.5166838946
 20
118.7609458802
 30
0.0
 40
0.5
100
AcDbArc
 50
0.0
 51
90.0
  0
ARC
  5
76
330
1F
100
AcDbEntity
  8
OBRYS
100
AcDbCircle
 10
143.5166838946
 20
117.3609458802
 30
0.0
 40
0.5000000000000142
100
AcDbArc
 50
270.0
 51
0.0
  0
ARC
  5
77
330
1F
100
AcDbEntity
  8
OBRYS
100
AcDbCircle
 10
143.3166838946
 20
117.3609458802
 30
0.0
 40
0.5000000000000142
100
AcDbArc
 50
180.0
 51
270.0
  0
ARC
  5
78
330
1F
100
AcDbEntity
  8
OBRYS
100
AcDbCircle
 10
142.3166838946
 20
117.5609458802
 30
0.0
 40
0.5
100
AcDbArc
 50
0.0
 51
90.0
  0
ARC
  5
79
330
1F
100
AcDbEntity
  8
OBRYS
100
AcDbCircle
 10
142.2166838946
 20
117.5609458802
 30
0.0
 40
0.5
100
AcDbArc
 50
90.0
 51
180.0
  0
ARC
  5
7A
330
1F
100
AcDbEntity
  8
OBRYS
100
AcDbCircle
 10
142.2166838946
 20
113.1609458802
 30
0.0
 40
0.5
100
AcDbArc
 50
180.0
 51
270.0
  0
ARC
  5
7B
330
1F
100
AcDbEntity
  8
OBRYS
100
AcDbCircle
 10
143.3166838946
 20
113.3609458802
 30
0.0
 40
0.5
100
AcDbArc
 50
90.0
 51
180.0
  0
ARC
  5
7C
330
1F
100
AcDbEntity
  8
OBRYS
100
AcDbCircle
 10
143.5166838946
 20
113.3609458802
 30
0.0
 40
0.5
100
AcDbArc
 50
0.0
 51
90.0
  0
ARC
  5
7D
330
1F
100
AcDbEntity
  8
OBRYS
100
AcDbCircle
 10
143.5166838946
 20
111.9609458802
 30
0.0
 40
0.5
100
AcDbArc
 50
270.0
 51
0.0
  0
ARC
  5
7E
330
1F
100
AcDbEntity
  8
OBRYS
100
AcDbCircle
 10
141.0166838946
 20
111.9609458802
 30
0.0
 40
0.5
100
AcDbArc
 50
180.0
 51
270.0
  0
ARC
  5
7F
330
1F
100
AcDbEntity
  8
OBRYS
100
AcDbCircle
 10
141.0166838946
 20
179.9609458802
 30
0.0
 40
0.5
100
AcDbArc
 50
90.0
 51
180.0
  0
ARC
  5
80
330
1F
100
AcDbEntity
  8
OBRYS
100
AcDbCircle
 10
143.5166838946
 20
179.9609458802
 30
0.0
 40
0.5
100
AcDbArc
 50
0.0
 51
90.0
  0
ARC
  5
81
330
1F
100
AcDbEntity
  8
OBRYS
100
AcDbCircle
 10
143.5166838946
 20
178.5609458802
 30
0.0
 40
0.5
100
AcDbArc
 50
270.0
 51
0.0
  0
ARC
  5
82
330
1F
100
AcDbEntity
  8
OBRYS
100
AcDbCircle
 10
143.3166838946
 20
178.5609458802
 30
0.0
 40
0.5
100
AcDbArc
 50
180.0
 51
270.0
  0
ARC
  5
83
330
1F
100
AcDbEntity
  8
OBRYS
100
AcDbCircle
 10
142.3166838946
 20
178.7609458802
 30
0.0
 40
0.5
100
AcDbArc
 50
0.0
 51
90.0
  0
ARC
  5
84
330
1F
100
AcDbEntity
  8
OBRYS
100
AcDbCircle
 10
142.2166838946
 20
178.7609458802
 30
0.0
 40
0.5
100
AcDbArc
 50
90.0
 51
180.0
  0
ARC
  5
85
330
1F
100
AcDbEntity
  8
OBRYS
100
AcDbCircle
 10
142.2166838946
 20
174.3609458802
 30
0.0
 40
0.5
100
AcDbArc
 50
180.0
 51
270.0
  0
ARC
  5
86
330
1F
100
AcDbEntity
  8
OBRYS
100
AcDbCircle
 10
143.3166838946
 20
174.5609458802
 30
0.0
 40
0.5
100
AcDbArc
 50
90.0
 51
180.0
  0
ARC
  5
87
330
1F
100
AcDbEntity
  8
OBRYS
100
AcDbCircle
 10
143.5166838946
 20
174.5609458802
 30
0.0
 40
0.5
100
AcDbArc
 50
0.0
 51
90.0
  0
ARC
  5
88
330
1F
100
AcDbEntity
  8
OBRYS
100
AcDbCircle
 10
143.5166838946
 20
173.1609458802
 30
0.0
 40
0.5
100
AcDbArc
 50
270.0
 51
0.0
  0
ARC
  5
89
330
1F
100
AcDbEntity
  8
OBRYS
100
AcDbCircle
 10
142.2166838946
 20
172.1609458802
 30
0.0
 40
0.5
100
AcDbArc
 50
90.0
 51
180.0
  0
ARC
  5
8A
330
1F
100
AcDbEntity
  8
OBRYS
100
AcDbCircle
 10
142.7166838946
 20
163.1609458802
 30
0.0
 40
1.0
100
AcDbArc
 50
180.0
 51
270.0
  0
ARC
  5
8B
330
1F
100
AcDbEntity
  8
OBRYS
100
AcDbCircle
 10
160.3166838946
 20
163.1609458802
 30
0.0
 40
1.0
100
AcDbArc
 50
270.0
 51
0.0
  0
ARC
  5
8C
330
1F
100
AcDbEntity
  8
OBRYS
100
AcDbCircle
 10
160.8166838946
 20
172.1609458802
 30
0.0
 40
0.5
100
AcDbArc
 50
0.0
 51
90.0
  0
ARC
  5
8D
330
1F
100
AcDbEntity
  8
OBRYS
100
AcDbCircle
 10
159.5166838946
 20
173.1609458802
 30
0.0
 40
0.5
100
AcDbArc
 50
180.0
 51
270.0
  0
ARC
  5
8E
330
1F
100
AcDbEntity
  8
OBRYS
100
AcDbCircle
 10
159.5166838946
 20
174.5609458802
 30
0.0
 40
0.5
100
AcDbArc
 50
90.0
 51
180.0
  0
ARC
  5
8F
330
1F
100
AcDbEntity
  8
OBRYS
100
AcDbCircle
 10
159.7166838946
 20
174.5609458802
 30
0.0
 40
0.5
100
AcDbArc
 50
0.0
 51
90.0
  0
ARC
  5
90
330
1F
100
AcDbEntity
  8
OBRYS
100
AcDbCircle
 10
160.7166838946
 20
174.3609458802
 30
0.0
 40
0.5000000000000284
100
AcDbArc
 50
180.0
 51
270.0
  0
ARC
  5
91
330
1F
100
AcDbEntity
  8
OBRYS
100
AcDbCircle
 10
160.8166838946
 20
174.3609458802
 30
0.0
 40
0.5
100
AcDbArc
 50
270.0
 51
0.0
  0
ARC
  5
92
330
1F
100
AcDbEntity
  8
OBRYS
100
AcDbCircle
 10
160.8166838946
 20
178.7609458802
 30
0.0
 40
0.5
100
AcDbArc
 50
0.0
 51
90.0
  0
ARC
  5
93
330
1F
100
AcDbEntity
  8
OBRYS
100
AcDbCircle
 10
160.7166838946
 20
178.7609458802
 30
0.0
 40
0.5000000000000284
100
AcDbArc
 50
90.0
 51
180.0
  0
ARC
  5
94
330
1F
100
AcDbEntity
  8
OBRYS
100
AcDbCircle
 10
159.7166838946
 20
178.5609458802
 30
0.0
 40
0.5
100
AcDbArc
 50
270.0
 51
0.0
  0
ARC
  5
95
330
1F
100
AcDbEntity
  8
OBRYS
100
AcDbCircle
 10
159.5166838946
 20
178.5609458802
 30
0.0
 40
0.5
100
AcDbArc
 50
180.0
 51
270.0
  0
ARC
  5
96
330
1F
100
AcDbEntity
  8
OBRYS
100
AcDbCircle
 10
159.5166838946
 20
179.9609458802
 30
0.0
 40
0.5
100
AcDbArc
 50
90.0
 51
180.0
  0
ARC
  5
97
330
1F
100
AcDbEntity
  8
OBRYS
100
AcDbCircle
 10
162.0166838946
 20
179.9609458802
 30
0.0
 40
0.5
100
AcDbArc
 50
360.0
 51
90.0
  0
ARC
  5
98
330
1F
100
AcDbEntity
  8
OBRYS
100
AcDbCircle
 10
162.0166838946
 20
111.9609458802
 30
0.0
 40
0.5
100
AcDbArc
 50
270.0
 51
0.0
  0
ARC
  5
99
330
1F
100
AcDbEntity
  8
OBRYS
100
AcDbCircle
 10
159.5166838946
 20
111.9609458802
 30
0.0
 40
0.5
100
AcDbArc
 50
180.0
 51
270.0
  0
ARC
  5
9A
330
1F
100
AcDbEntity
  8
OBRYS
100
AcDbCircle
 10
159.5166838946
 20
113.3609458802
 30
0.0
 40
0.5
100
AcDbArc
 50
90.0
 51
180.0
  0
ARC
  5
9B
330
1F
100
AcDbEntity
  8
OBRYS
100
AcDbCircle
 10
159.7166838946
 20
113.3609458802
 30
0.0
 40
0.5
100
AcDbArc
 50
0.0
 51
90.0
  0
ARC
  5
9C
330
1F
100
AcDbEntity
  8
OBRYS
100
AcDbCircle
 10
160.7166838946
 20
113.1609458802
 30
0.0
 40
0.5000000000000284
100
AcDbArc
 50
180.0
 51
270.0
  0
ARC
  5
9D
330
1F
100
AcDbEntity
  8
OBRYS
100
AcDbCircle
 10
160.8166838946
 20
113.1609458802
 30
0.0
 40
0.5
100
AcDbArc
 50
270.0
 51
0.0
  0
ARC
  5
9E
330
1F
100
AcDbEntity
  8
OBRYS
100
AcDbCircle
 10
160.8166838946
 20
117.5609458802
 30
0.0
 40
0.5
100
AcDbArc
 50
0.0
 51
90.0
  0
ARC
  5
9F
330
1F
100
AcDbEntity
  8
OBRYS
100
AcDbCircle
 10
160.7166838946
 20
117.5609458802
 30
0.0
 40
0.5000000000000284
100
AcDbArc
 50
90.0
 51
180.0
  0
ARC
  5
A0
330
1F
100
AcDbEntity
  8
OBRYS
100
AcDbCircle
 10
159.7166838946
 20
117.3609458802
 30
0.0
 40
0.5000000000000142
100
AcDbArc
 50
270.0
 51
0.0
  0
ARC
  5
A1
330
1F
100
AcDbEntity
  8
OBRYS
100
AcDbCircle
 10
159.5166838946
 20
117.3609458802
 30
0.0
 40
0.5000000000000142
100
AcDbArc
 50
180.0
 51
270.0
  0
ARC
  5
A2
330
1F
100
AcDbEntity
  8
OBRYS
100
AcDbCircle
 10
159.5166838946
 20
118.7609458802
 30
0.0
 40
0.5
100
AcDbArc
 50
90.0
 51
180.0
  0
LINE
  5
A3
330
1F
100
AcDbEntity
  8
OBRYS
100
AcDbLine
 10
143.7166838946
 20
146.0609458802
 30
0.0
 11
143.7166838946
 21
145.8609458802
 31
0.0
  0
LINE
  5
A4
330
1F
100
AcDbEntity
  8
OBRYS
100
AcDbLine
 10
162.0166838946
 20
111.4609458802
 30
0.0
 11
159.5166838946
 21
111.4609458802
 31
0.0
  0
LINE
  5
A5
330
1F
100
AcDbEntity
  8
OBRYS
100
AcDbLine
 10
159.0166838946
 20
111.9609458802
 30
0.0
 11
159.0166838946
 21
113.3609458802
 31
0.0
  0
LINE
  5
A6
330
1F
100
AcDbEntity
  8
OBRYS
100
AcDbLine
 10
159.5166838946
 20
113.8609458802
 30
0.0
 11
159.7166838946
 21
113.8609458802
 31
0.0
  0
LINE
  5
A7
330
1F
100
AcDbEntity
  8
OBRYS
100
AcDbLine
 10
160.2166838946
 20
113.3609458802
 30
0.0
 11
160.2166838946
 21
113.1609458802
 31
0.0
  0
LINE
  5
A8
330
1F
100
AcDbEntity
  8
OBRYS
100
AcDbLine
 10
160.7166838946
 20
112.6609458802
 30
0.0
 11
160.8166838946
 21
112.6609458802
 31
0.0
  0
LINE
  5
A9
330
1F
100
AcDbEntity
  8
OBRYS
100
AcDbLine
 10
161.3166838946
 20
113.1609458802
 30
0.0
 11
161.3166838946
 21
117.5609458802
 31
0.0
  0
LINE
  5
AA
330
1F
100
AcDbEntity
  8
OBRYS
100
AcDbLine
 10
160.8166838946
 20
118.0609458802
 30
0.0
 11
160.7166838946
 21
118.0609458802
 31
0.0
  0
LINE
  5
AB
330
1F
100
AcDbEntity
  8
OBRYS
100
AcDbLine
 10
160.2166838946
 20
117.5609458802
 30
0.0
 11
160.2166838946
 21
117.3609458802
 31
0.0
  0
LINE
  5
AC
330
1F
100
AcDbEntity
  8
OBRYS
100
AcDbLine
 10
159.7166838946
 20
116.8609458802
 30
0.0
 11
159.5166838946
 21
116.8609458802
 31
0.0
  0
LINE
  5
AD
330
1F
100
AcDbEntity
  8
OBRYS
100
AcDbLine
 10
159.0166838946
 20
117.3609458802
 30
0.0
 11
159.0166838946
 21
118.7609458802
 31
0.0
  0
LINE
  5
AE
330
1F
100
AcDbEntity
  8
OBRYS
100
AcDbLine
 10
159.5166838946
 20
119.2609458802
 30
0.0
 11
160.8166838946
 21
119.2609458802
 31
0.0
  0
LINE
  5
AF
330
1F
100
AcDbEntity
  8
OBRYS
100
AcDbLine
 10
161.3166838946
 20
119.7609458802
 30
0.0
 11
161.3166838946
 21
128.7609458802
 31
0.0
  0
LINE
  5
B0
330
1F
100
AcDbEntity
  8
OBRYS
100
AcDbLine
 10
154.8166838946
 20
129.7609458802
 30
0.0
 11
160.3166838946
 21
129.7609458802
 31
0.0
  0
LINE
  5
B1
330
1F
100
AcDbEntity
  8
OBRYS
100
AcDbLine
 10
141.7166838946
 20
128.7609458802
 30
0.0
 11
141.7166838946
 21
119.7609458802
 31
0.0
  0
LINE
  5
B2
330
1F
100
AcDbEntity
  8
OBRYS
100
AcDbLine
 10
143.5166838946
 20
119.2609458802
 30
0.0
 11
142.2166838946
 21
119.2609458802
 31
0.0
  0
LINE
  5
B3
330
1F
100
AcDbEntity
  8
OBRYS
100
AcDbLine
 10
144.0166838946
 20
117.3609458802
 30
0.0
 11
144.0166838946
 21
118.7609458802
 31
0.0
  0
LINE
  5
B4
330
1F
100
AcDbEntity
  8
OBRYS
100
AcDbLine
 10
143.3166838946
 20
116.8609458802
 30
0.0
 11
143.5166838946
 21
116.8609458802
 31
0.0
  0
LINE
  5
B5
330
1F
100
AcDbEntity
  8
OBRYS
100
AcDbLine
 10
142.8166838946
 20
117.5609458802
 30
0.0
 11
142.8166838946
 21
117.3609458802
 31
0.0
  0
LINE
  5
B6
330
1F
100
AcDbEntity
  8
OBRYS
100
AcDbLine
 10
142.2166838946
 20
118.0609458802
 30
0.0
 11
142.3166838946
 21
118.0609458802
 31
0.0
  0
LINE
  5
B7
330
1F
100
AcDbEntity
  8
OBRYS
100
AcDbLine
 10
141.7166838946
 20
117.5609458802
 30
0.0
 11
141.7166838946
 21
113.1609458802
 31
0.0
  0
LINE
  5
B8
330
1F
100
AcDbEntity
  8
OBRYS
100
AcDbLine
 10
142.2166838946
 20
112.6609458802
 30
0.0
 11
142.8166838946
 21
112.6609458802
 31
0.0
  0
LINE
  5
B9
330
1F
100
AcDbEntity
  8
OBRYS
100
AcDbLine
 10
142.8166838946
 20
112.6609458802
 30
0.0
 11
142.8166838946
 21
113.3609458802
 31
0.0
  0
LINE
  5
BA
330
1F
100
AcDbEntity
  8
OBRYS
100
AcDbLine
 10
143.3166838946
 20
113.8609458802
 30
0.0
 11
143.5166838946
 21
113.8609458802
 31
0.0
  0
LINE
  5
BB
330
1F
100
AcDbEntity
  8
OBRYS
100
AcDbLine
 10
144.0166838946
 20
113.3609458802
 30
0.0
 11
144.0166838946
 21
111.9609458802
 31
0.0
  0
LINE
  5
BC
330
1F
100
AcDbEntity
  8
OBRYS
100
AcDbLine
 10
143.5166838946
 20
111.4609458802
 30
0.0
 11
141.0166838946
 21
111.4609458802
 31
0.0
  0
LINE
  5
BD
330
1F
100
AcDbEntity
  8
OBRYS
100
AcDbLine
 10
140.5166838946
 20
179.9609458802
 30
0.0
 11
140.5166838946
 21
111.9609458802
 31
0.0
  0
LINE
  5
BE
330
1F
100
AcDbEntity
  8
OBRYS
100
AcDbLine
 10
143.5166838946
 20
180.4609458802
 30
0.0
 11
141.0166838946
 21
180.4609458802
 31
0.0
  0
LINE
  5
BF
330
1F
100
AcDbEntity
  8
OBRYS
100
AcDbLine
 10
144.0166838946
 20
178.5609458802
 30
0.0
 11
144.0166838946
 21
179.9609458802
 31
0.0
  0
LINE
  5
C0
330
1F
100
AcDbEntity
  8
OBRYS
100
AcDbLine
 10
143.3166838946
 20
178.0609458802
 30
0.0
 11
143.5166838946
 21
178.0609458802
 31
0.0
  0
LINE
  5
C1
330
1F
100
AcDbEntity
  8
OBRYS
100
AcDbLine
 10
142.8166838946
 20
178.7609458802
 30
0.0
 11
142.8166838946
 21
178.5609458802
 31
0.0
  0
LINE
  5
C2
330
1F
100
AcDbEntity
  8
OBRYS
100
AcDbLine
 10
142.2166838946
 20
179.2609458802
 30
0.0
 11
142.3166838946
 21
179.2609458802
 31
0.0
  0
LINE
  5
C3
330
1F
100
AcDbEntity
  8
OBRYS
100
AcDbLine
 10
141.7166838946
 20
174.3609458802
 30
0.0
 11
141.7166838946
 21
178.7609458802
 31
0.0
  0
LINE
  5
C4
330
1F
100
AcDbEntity
  8
OBRYS
100
AcDbLine
 10
142.2166838946
 20
173.8609458802
 30
0.0
 11
142.8166838946
 21
173.8609458802
 31
0.0
  0
LINE
  5
C5
330
1F
100
AcDbEntity
  8
OBRYS
100
AcDbLine
 10
142.8166838946
 20
173.8609458802
 30
0.0
 11
142.8166838946
 21
174.5609458802
 31
0.0
  0
LINE
  5
C6
330
1F
100
AcDbEntity
  8
OBRYS
100
AcDbLine
 10
143.3166838946
 20
175.0609458802
 30
0.0
 11
143.5166838946
 21
175.0609458802
 31
0.0
  0
LINE
  5
C7
330
1F
100
AcDbEntity
  8
OBRYS
100
AcDbLine
 10
144.0166838946
 20
174.5609458802
 30
0.0
 11
144.0166838946
 21
173.1609458802
 31
0.0
  0
LINE
  5
C8
330
1F
100
AcDbEntity
  8
OBRYS
100
AcDbLine
 10
143.5166838946
 20
172.6609458802
 30
0.0
 11
142.2166838946
 21
172.6609458802
 31
0.0
  0
LINE
  5
C9
330
1F
100
AcDbEntity
  8
OBRYS
100
AcDbLine
 10
141.7166838946
 20
163.1609458802
 30
0.0
 11
141.7166838946
 21
172.1609458802
 31
0.0
  0
LINE
  5
CA
330
1F
100
AcDbEntity
  8
OBRYS
100
AcDbLine
 10
142.7166838946
 20
162.1609458802
 30
0.0
 11
160.3166838946
 21
162.1609458802
 31
0.0
  0
LINE
  5
CB
330
1F
100
AcDbEntity
  8
OBRYS
100
AcDbLine
 10
161.3166838946
 20
172.1609458802
 30
0.0
 11
161.3166838946
 21
163.1609458802
 31
0.0
  0
LINE
  5
CC
330
1F
100
AcDbEntity
  8
OBRYS
100
AcDbLine
 10
159.5166838946
 20
172.6609458802
 30
0.0
 11
160.8166838946
 21
172.6609458802
 31
0.0
  0
LINE
  5
CD
330
1F
100
AcDbEntity
  8
OBRYS
100
AcDbLine
 10
159.0166838946
 20
174.5609458802
 30
0.0
 11
159.0166838946
 21
173.1609458802
 31
0.0
  0
LINE
  5
CE
330
1F
100
AcDbEntity
  8
OBRYS
100
AcDbLine
 10
159.7166838946
 20
175.0609458802
 30
0.0
 11
159.5166838946
 21
175.0609458802
 31
0.0
  0
LINE
  5
CF
330
1F
100
AcDbEntity
  8
OBRYS
100
AcDbLine
 10
160.2166838946
 20
174.3609458802
 30
0.0
 11
160.2166838946
 21
174.5609458802
 31
0.0
  0
LINE
  5
D0
330
1F
100
AcDbEntity
  8
OBRYS
100
AcDbLine
 10
160.8166838946
 20
173.8609458802
 30
0.0
 11
160.7166838946
 21
173.8609458802
 31
0.0
  0
LINE
  5
D1
330
1F
100
AcDbEntity
  8
OBRYS
100
AcDbLine
 10
161.3166838946
 20
178.7609458802
 30
0.0
 11
161.3166838946
 21
174.3609458802
 31
0.0
  0
LINE
  5
D2
330
1F
100
AcDbEntity
  8
OBRYS
100
AcDbLine
 10
160.7166838946
 20
179.2609458802
 30
0.0
 11
160.8166838946
 21
179.2609458802
 31
0.0
  0
LINE
  5
D3
330
1F
100
AcDbEntity
  8
OBRYS
100
AcDbLine
 10
160.2166838946
 20
178.5609458802
 30
0.0
 11
160.2166838946
 21
178.7609458802
 31
0.0
  0
LINE
  5
D4
330
1F
100
AcDbEntity
  8
OBRYS
100
AcDbLine
 10
159.5166838946
 20
178.0609458802
 30
0.0
 11
159.7166838946
 21
178.0609458802
 31
0.0
  0
LINE
  5
D5
330
1F
100
AcDbEntity
  8
OBRYS
100
AcDbLine
 10
159.0166838946
 20
179.9609458802
 30
0.0
 11
159.0166838946
 21
178.5609458802
 31
0.0
  0
LINE
  5
D6
330
1F
100
AcDbEntity
  8
OBRYS
100
AcDbLine
 10
162.0166838946
 20
180.4609458802
 30
0.0
 11
159.5166838946
 21
180.4609458802
 31
0.0
  0
LINE
  5
D7
330
1F
100
AcDbEntity
  8
OBRYS
100
AcDbLine
 10
162.5166838946
 20
179.9609458802
 30
0.0
 11
162.5166838946
 21
111.9609458802
 31
0.0
  0
LINE
  5
D8
330
1F
100
AcDbEntity
  8
OBRYS
100
AcDbLine
 10
143.2166838946
 20
145.3609458802
 30
0.0
 11
141.7166838946
 21
145.3609458802
 31
0.0
  0
LINE
  5
D9
330
1F
100
AcDbEntity
  8
OBRYS
100
AcDbLine
 10
141.7166838946
 20
135.1609458802
 30
0.0
 11
141.7166838946
 21
145.3609458802
 31
0.0
  0
LINE
  5
DA
330
1F
100
AcDbEntity
  8
OBRYS
100
AcDbLine
 10
141.7166838946
 20
135.1609458802
 30
0.0
 11
143.2166838946
 21
135.1609458802
 31
0.0
  0
LINE
  5
DB
330
1F
100
AcDbEntity
  8
OBRYS
100
AcDbLine
 10
143.7166838946
 20
134.6609458802
 30
0.0
 11
143.7166838946
 21
134.4609458802
 31
0.0
  0
LINE
  5
DC
330
1F
100
AcDbEntity
  8
OBRYS
100
AcDbLine
 10
143.2166838946
 20
133.9609458802
 30
0.0
 11
141.7166838946
 21
133.9609458802
 31
0.0
  0
LINE
  5
DD
330
1F
100
AcDbEntity
  8
OBRYS
100
AcDbLine
 10
141.7166838946
 20
130.9609458802
 30
0.0
 11
141.7166838946
 21
133.9609458802
 31
0.0
  0
LINE
  5
DE
330
1F
100
AcDbEntity
  8
OBRYS
100
AcDbLine
 10
161.3166838946
 20
130.9609458802
 30
0.0
 11
141.7166838946
 21
130.9609458802
 31
0.0
  0
LINE
  5
DF
330
1F
100
AcDbEntity
  8
OBRYS
100
AcDbLine
 10
161.3166838946
 20
133.9609458802
 30
0.0
 11
161.3166838946
 21
130.9609458802
 31
0.0
  0
LINE
  5
E0
330
1F
100
AcDbEntity
  8
OBRYS
100
AcDbLine
 10
159.8166838946
 20
133.9609458802
 30
0.0
 11
161.3166838946
 21
133.9609458802
 31
0.0
  0
LINE
  5
E1
330
1F
100
AcDbEntity
  8
OBRYS
100
AcDbLine
 10
159.3166838946
 20
134.6609458802
 30
0.0
 11
159.3166838946
 21
134.4609458802
 31
0.0
  0
LINE
  5
E2
330
1F
100
AcDbEntity
  8
OBRYS
100
AcDbLine
 10
161.3166838946
 20
135.1609458802
 30
0.0
 11
159.8166838946
 21
135.1609458802
 31
0.0
  0
LINE
  5
E3
330
1F
100
AcDbEntity
  8
OBRYS
100
AcDbLine
 10
161.3166838946
 20
145.3609458802
 30
0.0
 11
161.3166838946
 21
135.1609458802
 31
0.0
  0
LINE
  5
E4
330
1F
100
AcDbEntity
  8
OBRYS
100
AcDbLine
 10
159.8166838946
 20
145.3609458802
 30
0.0
 11
161.3166838946
 21
145.3609458802
 31
0.0
  0
LINE
  5
E5
330
1F
100
AcDbEntity
  8
OBRYS
100
AcDbLine
 10
159.3166838946
 20
146.0609458802
 30
0.0
 11
159.3166838946
 21
145.8609458802
 31
0.0
  0
LINE
  5
E6
330
1F
100
AcDbEntity
  8
OBRYS
100
AcDbLine
 10
161.3166838946
 20
146.5609458802
 30
0.0
 11
159.8166838946
 21
146.5609458802
 31
0.0
  0
LINE
  5
E7
330
1F
100
AcDbEntity
  8
OBRYS
100
AcDbLine
 10
161.3166838946
 20
156.7609458802
 30
0.0
 11
161.3166838946
 21
146.5609458802
 31
0.0
  0
LINE
  5
E8
330
1F
100
AcDbEntity
  8
OBRYS
100
AcDbLine
 10
159.8166838946
 20
156.7609458802
 30
0.0
 11
161.3166838946
 21
156.7609458802
 31
0.0
  0
LINE
  5
E9
330
1F
100
AcDbEntity
  8
OBRYS
100
AcDbLine
 10
159.3166838946
 20
157.4609458802
 30
0.0
 11
159.3166838946
 21
157.2609458802
 31
0.0
  0
LINE
  5
EA
330
1F
100
AcDbEntity
  8
OBRYS
100
AcDbLine
 10
161.3166838946
 20
157.9609458802
 30
0.0
 11
159.8166838946
 21
157.9609458802
 31
0.0
  0
LINE
  5
EB
330
1F
100
AcDbEntity
  8
OBRYS
100
AcDbLine
 10
161.3166838946
 20
160.9609458802
 30
0.0
 11
161.3166838946
 21
157.9609458802
 31
0.0
  0
LINE
  5
EC
330
1F
100
AcDbEntity
  8
OBRYS
100
AcDbLine
 10
141.7166838946
 20
160.9609458802
 30
0.0
 11
161.3166838946
 21
160.9609458802
 31
0.0
  0
LINE
  5
ED
330
1F
100
AcDbEntity
  8
OBRYS
100
AcDbLine
 10
141.7166838946
 20
157.9609458802
 30
0.0
 11
141.7166838946
 21
160.9609458802
 31
0.0
  0
LINE
  5
EE
330
1F
100
AcDbEntity
  8
OBRYS
100
AcDbLine
 10
141.7166838946
 20
157.9609458802
 30
0.0
 11
143.2166838946
 21
157.9609458802
 31
0.0
  0
LINE
  5
EF
330
1F
100
AcDbEntity
  8
OBRYS
100
AcDbLine
 10
143.7166838946
 20
157.4609458802
 30
0.0
 11
143.7166838946
 21
157.2609458802
 31
0.0
  0
LINE
  5
F0
330
1F
100
AcDbEntity
  8
OBRYS
100
AcDbLine
 10
143.2166838946
 20
156.7609458802
 30
0.0
 11
141.7166838946
 21
156.7609458802
 31
0.0
  0
LINE
  5
F1
330
1F
100
AcDbEntity
  8
OBRYS
100
AcDbLine
 10
141.7166838946
 20
146.5609458802
 30
0.0
 11
141.7166838946
 21
156.7609458802
 31
0.0
  0
LINE
  5
F2
330
1F
100
AcDbEntity
  8
OBRYS
100
AcDbLine
 10
141.7166838946
 20
146.5609458802
 30
0.0
 11
143.2166838946
 21
146.5609458802
 31
0.0
  0
LINE
  5
F3
330
1F
100
AcDbEntity
  8
OBRYS
100
AcDbLine
 10
149.4166838946
 20
129.7609458802
 30
0.0
 11
150.9166838946
 21
129.7609458802
 31
0.0
  0
LINE
  5
F4
330
1F
100
AcDbEntity
  8
OBRYS
100
AcDbLine
 10
142.7166838946
 20
129.7609458802
 30
0.0
 11
148.2166838946
 21
129.7609458802
 31
0.0
  0
LINE
  5
F5
330
1F
100
AcDbEntity
  8
OBRYS
100
AcDbLine
 10
152.1166838946
 20
129.7609458802
 30
0.0
 11
153.6166838946
 21
129.7609458802
 31
0.0
  0
DIMENSION
  5
F6
330
1F
100
AcDbEntity
  8
KOTY
100
AcDbDimension
  2
*D1
 10
134.5166838946
 20
111.4609458802
 30
0.0
 11
134.5166838946
 21
145.9609458802
 31
0.0
 70
   160
 71
     2
 42
-1.0
  3
SLDDIMSTYLE0
100
AcDbAlignedDimension
 13
141.0166838946
 23
180.4609458802
 33
0.0
 14
141.0166838946
 24
111.4609458802
 34
0.0
 50
90.0
100
AcDbRotatedDimension
  0
DIMENSION
  5
101
330
1F
100
AcDbEntity
  8
KOTY
100
AcDbDimension
  2
*D2
 10
168.5166838946
 20
160.9609458802
 30
0.0
 11
168.5166838946
 21
145.9609458802
 31
0.0
 70
   160
 71
     2
 42
-1.0
  3
SLDDIMSTYLE0
100
AcDbAlignedDimension
 13
161.3166838946
 23
130.9609458802
 33
0.0
 14
161.3166838946
 24
160.9609458802
 34
0.0
 50
90.0
100
AcDbRotatedDimension
  0
DIMENSION
  5
10B
330
1F
100
AcDbEntity
  8
KOTY
100
AcDbDimension
  2
*D3
 10
162.5166838946
 20
192.4609458802
 30
0.0
 11
151.5166838946
 21
192.4609458802
 31
0.0
 70
   160
 71
     2
 42
-1.0
  3
SLDDIMSTYLE0
100
AcDbAlignedDimension
 13
140.5166838946
 23
179.9609458802
 33
0.0
 14
162.5166838946
 24
179.9609458802
 34
0.0
100
AcDbRotatedDimension
  0
DIMENSION
  5
115
330
1F
100
AcDbEntity
  8
KOTY
100
AcDbDimension
  2
*D4
 10
159.0166838946
 20
186.4609458802
 30
0.0
 11
151.5166838946
 21
186.4609458802
 31
0.0
 70
   160
 71
     2
 42
-1.0
  3
SLDDIMSTYLE1
100
AcDbAlignedDimension
 13
144.0166838946
 23
179.9609458802
 33
0.0
 14
159.0166838946
 24
179.9609458802
 34
0.0
100
AcDbRotatedDimension
  0
DIMENSION
  5
122
330
1F
100
AcDbEntity
  8
KOTY
100
AcDbDimension
  2
*D5
 10
168.5166838946
 20
162.1609458802
 30
0.0
 11
168.5166838946
 21
171.3109458802
 31
0.0
 70
   160
 71
     2
 42
-1.0
  3
SLDDIMSTYLE2
100
AcDbAlignedDimension
 13
162.0166838946
 23
180.4609458802
 33
0.0
 14
160.3166838946
 24
162.1609458802
 34
0.0
 50
90.0
100
AcDbRotatedDimension
  0
ARC
  5
12D
330
1F
100
AcDbEntity
  8
OBRYS
100
AcDbCircle
 10
45.3411059224
 20
236.0157116426
 30
0.0
 40
0.5
100
AcDbArc
 50
270.0
 51
0.0
  0
ARC
  5
12E
330
1F
100
AcDbEntity
  8
OBRYS
100
AcDbCircle
 10
45.3411059224
 20
224.8157116426
 30
0.0
 40
0.5
100
AcDbArc
 50
0.0
 51
90.0
  0
ARC
  5
12F
330
1F
100
AcDbEntity
  8
OBRYS
100
AcDbCircle
 10
45.3411059224
 20
224.6157116426
 30
0.0
 40
0.5
100
AcDbArc
 50
270.0
 51
0.0
  0
ARC
  5
130
330
1F
100
AcDbEntity
  8
OBRYS
100
AcDbCircle
 10
45.3411059224
 20
213.4157116426
 30
0.0
 40
0.5
100
AcDbArc
 50
0.0
 51
90.0
  0
ARC
  5
131
330
1F
100
AcDbEntity
  8
OBRYS
100
AcDbCircle
 10
45.3411059224
 20
213.2157116426
 30
0.0
 40
0.5
100
AcDbArc
 50
270.0
 51
0.0
  0
ARC
  5
132
330
1F
100
AcDbEntity
  8
OBRYS
100
AcDbCircle
 10
61.9411059224
 20
213.2157116426
 30
0.0
 40
0.5
100
AcDbArc
 50
180.0
 51
270.0
  0
ARC
  5
133
330
1F
100
AcDbEntity
  8
OBRYS
100
AcDbCircle
 10
61.9411059224
 20
213.4157116426
 30
0.0
 40
0.5
100
AcDbArc
 50
90.0
 51
180.0
  0
ARC
  5
134
330
1F
100
AcDbEntity
  8
OBRYS
100
AcDbCircle
 10
61.9411059224
 20
224.6157116426
 30
0.0
 40
0.5
100
AcDbArc
 50
180.0
 51
270.0
  0
ARC
  5
135
330
1F
100
AcDbEntity
  8
OBRYS
100
AcDbCircle
 10
61.9411059224
 20
224.8157116426
 30
0.0
 40
0.5
100
AcDbArc
 50
90.0
 51
180.0
  0
ARC
  5
136
330
1F
100
AcDbEntity
  8
OBRYS
100
AcDbCircle
 10
61.9411059224
 20
236.0157116426
 30
0.0
 40
0.5000000000000071
100
AcDbArc
 50
180.0
 51
270.0
  0
ARC
  5
137
330
1F
100
AcDbEntity
  8
OBRYS
100
AcDbCircle
 10
61.9411059224
 20
236.2157116426
 30
0.0
 40
0.5000000000000071
100
AcDbArc
 50
90.0
 51
180.0
  0
ARC
  5
138
330
1F
100
AcDbEntity
  8
OBRYS
100
AcDbCircle
 10
45.3411059224
 20
236.2157116426
 30
0.0
 40
0.5
100
AcDbArc
 50
0.0
 51
90.0
  0
ARC
  5
139
330
1F
100
AcDbEntity
  8
OBRYS
100
AcDbCircle
 10
62.9411059224
 20
190.5157116426
 30
0.0
 40
0.5
100
AcDbArc
 50
270.0
 51
0.0
  0
ARC
  5
13A
330
1F
100
AcDbEntity
  8
OBRYS
100
AcDbCircle
 10
62.4411059224
 20
207.5157116426
 30
0.0
 40
1.0
100
AcDbArc
 50
0.0
 51
90.0
  0
ARC
  5
13B
330
1F
100
AcDbEntity
  8
OBRYS
100
AcDbCircle
 10
56.3411059224
 20
208.9657116426
 30
0.0
 40
0.749999999999983
100
AcDbArc
 50
216.8698976458
 51
323.1301023542
  0
ARC
  5
13C
330
1F
100
AcDbEntity
  8
OBRYS
100
AcDbCircle
 10
53.6411059224
 20
208.9657116426
 30
0.0
 40
0.7499999999999772
100
AcDbArc
 50
216.8698976458
 51
323.1301023542
  0
ARC
  5
13D
330
1F
100
AcDbEntity
  8
OBRYS
100
AcDbCircle
 10
50.9411059224
 20
208.9657116426
 30
0.0
 40
0.7499999999999772
100
AcDbArc
 50
216.8698976458
 51
323.1301023542
  0
ARC
  5
13E
330
1F
100
AcDbEntity
  8
OBRYS
100
AcDbCircle
 10
44.8411059224
 20
207.5157116426
 30
0.0
 40
1.0
100
AcDbArc
 50
90.0
 51
180.0
  0
ARC
  5
13F
330
1F
100
AcDbEntity
  8
OBRYS
100
AcDbCircle
 10
44.3411059224
 20
190.5157116426
 30
0.0
 40
0.5
100
AcDbArc
 50
180.0
 51
270.0
  0
ARC
  5
140
330
1F
100
AcDbEntity
  8
OBRYS
100
AcDbCircle
 10
45.6411059224
 20
189.5157116426
 30
0.0
 40
0.5
100
AcDbArc
 50
0.0
 51
90.0
  0
ARC
  5
141
330
1F
100
AcDbEntity
  8
OBRYS
100
AcDbCircle
 10
45.6411059224
 20
188.1157116426
 30
0.0
 40
0.5
100
AcDbArc
 50
270.0
 51
0.0
  0
ARC
  5
142
330
1F
100
AcDbEntity
  8
OBRYS
100
AcDbCircle
 10
45.4411059224
 20
188.1157116426
 30
0.0
 40
0.5
100
AcDbArc
 50
180.0
 51
270.0
  0
ARC
  5
143
330
1F
100
AcDbEntity
  8
OBRYS
100
AcDbCircle
 10
44.4411059224
 20
188.3157116426
 30
0.0
 40
0.5
100
AcDbArc
 50
0.0
 51
90.0
  0
ARC
  5
144
330
1F
100
AcDbEntity
  8
OBRYS
100
AcDbCircle
 10
44.3411059224
 20
188.3157116426
 30
0.0
 40
0.5
100
AcDbArc
 50
90.0
 51
180.0
  0
ARC
  5
145
330
1F
100
AcDbEntity
  8
OBRYS
100
AcDbCircle
 10
44.3411059224
 20
183.9157116426
 30
0.0
 40
0.5
100
AcDbArc
 50
180.0
 51
270.0
  0
ARC
  5
146
330
1F
100
AcDbEntity
  8
OBRYS
100
AcDbCircle
 10
45.4411059224
 20
184.1157116426
 30
0.0
 40
0.5
100
AcDbArc
 50
90.0
 51
180.0
  0
ARC
  5
147
330
1F
100
AcDbEntity
  8
OBRYS
100
AcDbCircle
 10
45.6411059224
 20
184.1157116426
 30
0.0
 40
0.5
100
AcDbArc
 50
0.0
 51
90.0
  0
ARC
  5
148
330
1F
100
AcDbEntity
  8
OBRYS
100
AcDbCircle
 10
45.6411059224
 20
182.7157116426
 30
0.0
 40
0.5
100
AcDbArc
 50
270.0
 51
0.0
  0
ARC
  5
149
330
1F
100
AcDbEntity
  8
OBRYS
100
AcDbCircle
 10
43.1411059224
 20
182.7157116426
 30
0.0
 40
0.5000000000000071
100
AcDbArc
 50
180.0
 51
270.0
  0
ARC
  5
14A
330
1F
100
AcDbEntity
  8
OBRYS
100
AcDbCircle
 10
43.1411059224
 20
266.7157116426
 30
0.0
 40
0.5000000000000071
100
AcDbArc
 50
90.0
 51
180.0
  0
ARC
  5
14B
330
1F
100
AcDbEntity
  8
OBRYS
100
AcDbCircle
 10
45.6411059224
 20
266.7157116426
 30
0.0
 40
0.5
100
AcDbArc
 50
0.0
 51
90.0
  0
ARC
  5
14C
330
1F
100
AcDbEntity
  8
OBRYS
100
AcDbCircle
 10
45.6411059224
 20
265.3157116426
 30
0.0
 40
0.5
100
AcDbArc
 50
270.0
 51
0.0
  0
ARC
  5
14D
330
1F
100
AcDbEntity
  8
OBRYS
100
AcDbCircle
 10
45.4411059224
 20
265.3157116426
 30
0.0
 40
0.5
100
AcDbArc
 50
180.0
 51
270.0
  0
ARC
  5
14E
330
1F
100
AcDbEntity
  8
OBRYS
100
AcDbCircle
 10
44.4411059224
 20
265.5157116426
 30
0.0
 40
0.5
100
AcDbArc
 50
0.0
 51
90.0
  0
ARC
  5
14F
330
1F
100
AcDbEntity
  8
OBRYS
100
AcDbCircle
 10
44.3411059224
 20
265.5157116426
 30
0.0
 40
0.5
100
AcDbArc
 50
90.0
 51
180.0
  0
ARC
  5
150
330
1F
100
AcDbEntity
  8
OBRYS
100
AcDbCircle
 10
44.3411059224
 20
261.1157116426
 30
0.0
 40
0.5
100
AcDbArc
 50
180.0
 51
270.0
  0
ARC
  5
151
330
1F
100
AcDbEntity
  8
OBRYS
100
AcDbCircle
 10
45.4411059224
 20
261.3157116426
 30
0.0
 40
0.5
100
AcDbArc
 50
90.0
 51
180.0
  0
ARC
  5
152
330
1F
100
AcDbEntity
  8
OBRYS
100
AcDbCircle
 10
45.6411059224
 20
261.3157116426
 30
0.0
 40
0.5
100
AcDbArc
 50
0.0
 51
90.0
  0
ARC
  5
153
330
1F
100
AcDbEntity
  8
OBRYS
100
AcDbCircle
 10
45.6411059224
 20
259.9157116426
 30
0.0
 40
0.5
100
AcDbArc
 50
270.0
 51
0.0
  0
ARC
  5
154
330
1F
100
AcDbEntity
  8
OBRYS
100
AcDbCircle
 10
44.3411059224
 20
258.9157116426
 30
0.0
 40
0.5
100
AcDbArc
 50
90.0
 51
180.0
  0
ARC
  5
155
330
1F
100
AcDbEntity
  8
OBRYS
100
AcDbCircle
 10
44.8411059224
 20
241.9157116426
 30
0.0
 40
1.0
100
AcDbArc
 50
180.0
 51
270.0
  0
ARC
  5
156
330
1F
100
AcDbEntity
  8
OBRYS
100
AcDbCircle
 10
62.4411059224
 20
241.9157116426
 30
0.0
 40
1.0
100
AcDbArc
 50
270.0
 51
0.0
  0
ARC
  5
157
330
1F
100
AcDbEntity
  8
OBRYS
100
AcDbCircle
 10
62.9411059224
 20
258.9157116426
 30
0.0
 40
0.5
100
AcDbArc
 50
0.0
 51
90.0
  0
ARC
  5
158
330
1F
100
AcDbEntity
  8
OBRYS
100
AcDbCircle
 10
61.6411059224
 20
259.9157116426
 30
0.0
 40
0.5
100
AcDbArc
 50
180.0
 51
270.0
  0
ARC
  5
159
330
1F
100
AcDbEntity
  8
OBRYS
100
AcDbCircle
 10
61.6411059224
 20
261.3157116426
 30
0.0
 40
0.5
100
AcDbArc
 50
90.0
 51
180.0
  0
ARC
  5
15A
330
1F
100
AcDbEntity
  8
OBRYS
100
AcDbCircle
 10
61.8411059224
 20
261.3157116426
 30
0.0
 40
0.5
100
AcDbArc
 50
0.0
 51
90.0
  0
ARC
  5
15B
330
1F
100
AcDbEntity
  8
OBRYS
100
AcDbCircle
 10
62.8411059224
 20
261.1157116426
 30
0.0
 40
0.5000000000000071
100
AcDbArc
 50
180.0
 51
270.0
  0
ARC
  5
15C
330
1F
100
AcDbEntity
  8
OBRYS
100
AcDbCircle
 10
62.9411059224
 20
261.1157116426
 30
0.0
 40
0.5
100
AcDbArc
 50
270.0
 51
0.0
  0
ARC
  5
15D
330
1F
100
AcDbEntity
  8
OBRYS
100
AcDbCircle
 10
62.9411059224
 20
265.5157116426
 30
0.0
 40
0.5
100
AcDbArc
 50
0.0
 51
90.0
  0
ARC
  5
15E
330
1F
100
AcDbEntity
  8
OBRYS
100
AcDbCircle
 10
62.8411059224
 20
265.5157116426
 30
0.0
 40
0.5000000000000071
100
AcDbArc
 50
90.0
 51
180.0
  0
ARC
  5
15F
330
1F
100
AcDbEntity
  8
OBRYS
100
AcDbCircle
 10
61.8411059224
 20
265.3157116426
 30
0.0
 40
0.5
100
AcDbArc
 50
270.0
 51
0.0
  0
ARC
  5
160
330
1F
100
AcDbEntity
  8
OBRYS
100
AcDbCircle
 10
61.6411059224
 20
265.3157116426
 30
0.0
 40
0.5
100
AcDbArc
 50
180.0
 51
270.0
  0
ARC
  5
161
330
1F
100
AcDbEntity
  8
OBRYS
100
AcDbCircle
 10
61.6411059224
 20
266.7157116426
 30
0.0
 40
0.5
100
AcDbArc
 50
90.0
 51
180.0
  0
ARC
  5
162
330
1F
100
AcDbEntity
  8
OBRYS
100
AcDbCircle
 10
64.1411059224
 20
266.7157116426
 30
0.0
 40
0.5
100
AcDbArc
 50
0.0
 51
90.0
  0
ARC
  5
163
330
1F
100
AcDbEntity
  8
OBRYS
100
AcDbCircle
 10
64.1411059224
 20
182.7157116426
 30
0.0
 40
0.5
100
AcDbArc
 50
270.0
 51
0.0
  0
ARC
  5
164
330
1F
100
AcDbEntity
  8
OBRYS
100
AcDbCircle
 10
61.6411059224
 20
182.7157116426
 30
0.0
 40
0.5
100
AcDbArc
 50
180.0
 51
270.0
  0
ARC
  5
165
330
1F
100
AcDbEntity
  8
OBRYS
100
AcDbCircle
 10
61.6411059224
 20
184.1157116426
 30
0.0
 40
0.5
100
AcDbArc
 50
90.0
 51
180.0
  0
ARC
  5
166
330
1F
100
AcDbEntity
  8
OBRYS
100
AcDbCircle
 10
61.8411059224
 20
184.1157116426
 30
0.0
 40
0.5
100
AcDbArc
 50
0.0
 51
90.0
  0
ARC
  5
167
330
1F
100
AcDbEntity
  8
OBRYS
100
AcDbCircle
 10
62.8411059224
 20
183.9157116426
 30
0.0
 40
0.5000000000000071
100
AcDbArc
 50
180.0
 51
270.0
  0
ARC
  5
168
330
1F
100
AcDbEntity
  8
OBRYS
100
AcDbCircle
 10
62.9411059224
 20
183.9157116426
 30
0.0
 40
0.5
100
AcDbArc
 50
270.0
 51
0.0
  0
ARC
  5
169
330
1F
100
AcDbEntity
  8
OBRYS
100
AcDbCircle
 10
62.9411059224
 20
188.3157116426
 30
0.0
 40
0.5
100
AcDbArc
 50
0.0
 51
90.0
  0
ARC
  5
16A
330
1F
100
AcDbEntity
  8
OBRYS
100
AcDbCircle
 10
62.8411059224
 20
188.3157116426
 30
0.0
 40
0.5000000000000071
100
AcDbArc
 50
90.0
 51
180.0
  0
ARC
  5
16B
330
1F
100
AcDbEntity
  8
OBRYS
100
AcDbCircle
 10
61.8411059224
 20
188.1157116426
 30
0.0
 40
0.5
100
AcDbArc
 50
270.0
 51
0.0
  0
ARC
  5
16C
330
1F
100
AcDbEntity
  8
OBRYS
100
AcDbCircle
 10
61.6411059224
 20
188.1157116426
 30
0.0
 40
0.5
100
AcDbArc
 50
180.0
 51
270.0
  0
ARC
  5
16D
330
1F
100
AcDbEntity
  8
OBRYS
100
AcDbCircle
 10
61.6411059224
 20
189.5157116426
 30
0.0
 40
0.5
100
AcDbArc
 50
90.0
 51
180.0
  0
LINE
  5
16E
330
1F
100
AcDbEntity
  8
OBRYS
100
AcDbLine
 10
45.8411059224
 20
224.8157116426
 30
0.0
 11
45.8411059224
 21
224.6157116426
 31
0.0
  0
LINE
  5
16F
330
1F
100
AcDbEntity
  8
OBRYS
100
AcDbLine
 10
64.1411059224
 20
182.2157116426
 30
0.0
 11
61.6411059224
 21
182.2157116426
 31
0.0
  0
LINE
  5
170
330
1F
100
AcDbEntity
  8
OBRYS
100
AcDbLine
 10
61.1411059224
 20
182.7157116426
 30
0.0
 11
61.1411059224
 21
184.1157116426
 31
0.0
  0
LINE
  5
171
330
1F
100
AcDbEntity
  8
OBRYS
100
AcDbLine
 10
61.6411059224
 20
184.6157116426
 30
0.0
 11
61.8411059224
 21
184.6157116426
 31
0.0
  0
LINE
  5
172
330
1F
100
AcDbEntity
  8
OBRYS
100
AcDbLine
 10
62.3411059224
 20
184.1157116426
 30
0.0
 11
62.3411059224
 21
183.9157116426
 31
0.0
  0
LINE
  5
173
330
1F
100
AcDbEntity
  8
OBRYS
100
AcDbLine
 10
62.8411059224
 20
183.4157116426
 30
0.0
 11
62.9411059224
 21
183.4157116426
 31
0.0
  0
LINE
  5
174
330
1F
100
AcDbEntity
  8
OBRYS
100
AcDbLine
 10
63.4411059224
 20
183.9157116426
 30
0.0
 11
63.4411059224
 21
188.3157116426
 31
0.0
  0
LINE
  5
175
330
1F
100
AcDbEntity
  8
OBRYS
100
AcDbLine
 10
62.9411059224
 20
188.8157116426
 30
0.0
 11
62.8411059224
 21
188.8157116426
 31
0.0
  0
LINE
  5
176
330
1F
100
AcDbEntity
  8
OBRYS
100
AcDbLine
 10
62.3411059224
 20
188.3157116426
 30
0.0
 11
62.3411059224
 21
188.1157116426
 31
0.0
  0
LINE
  5
177
330
1F
100
AcDbEntity
  8
OBRYS
100
AcDbLine
 10
61.8411059224
 20
187.6157116426
 30
0.0
 11
61.6411059224
 21
187.6157116426
 31
0.0
  0
LINE
  5
178
330
1F
100
AcDbEntity
  8
OBRYS
100
AcDbLine
 10
61.1411059224
 20
188.1157116426
 30
0.0
 11
61.1411059224
 21
189.5157116426
 31
0.0
  0
LINE
  5
179
330
1F
100
AcDbEntity
  8
OBRYS
100
AcDbLine
 10
61.6411059224
 20
190.0157116426
 30
0.0
 11
62.9411059224
 21
190.0157116426
 31
0.0
  0
LINE
  5
17A
330
1F
100
AcDbEntity
  8
OBRYS
100
AcDbLine
 10
63.4411059224
 20
190.5157116426
 30
0.0
 11
63.4411059224
 21
207.5157116426
 31
0.0
  0
LINE
  5
17B
330
1F
100
AcDbEntity
  8
OBRYS
100
AcDbLine
 10
56.9411059224
 20
208.5157116426
 30
0.0
 11
62.4411059224
 21
208.5157116426
 31
0.0
  0
LINE
  5
17C
330
1F
100
AcDbEntity
  8
OBRYS
100
AcDbLine
 10
43.8411059224
 20
207.5157116426
 30
0.0
 11
43.8411059224
 21
190.5157116426
 31
0.0
  0
LINE
  5
17D
330
1F
100
AcDbEntity
  8
OBRYS
100
AcDbLine
 10
45.6411059224
 20
190.0157116426
 30
0.0
 11
44.3411059224
 21
190.0157116426
 31
0.0
  0
LINE
  5
17E
330
1F
100
AcDbEntity
  8
OBRYS
100
AcDbLine
 10
46.1411059224
 20
188.1157116426
 30
0.0
 11
46.1411059224
 21
189.5157116426
 31
0.0
  0
LINE
  5
17F
330
1F
100
AcDbEntity
  8
OBRYS
100
AcDbLine
 10
45.4411059224
 20
187.6157116426
 30
0.0
 11
45.6411059224
 21
187.6157116426
 31
0.0
  0
LINE
  5
180
330
1F
100
AcDbEntity
  8
OBRYS
100
AcDbLine
 10
44.9411059224
 20
188.3157116426
 30
0.0
 11
44.9411059224
 21
188.1157116426
 31
0.0
  0
LINE
  5
181
330
1F
100
AcDbEntity
  8
OBRYS
100
AcDbLine
 10
44.3411059224
 20
188.8157116426
 30
0.0
 11
44.4411059224
 21
188.8157116426
 31
0.0
  0
LINE
  5
182
330
1F
100
AcDbEntity
  8
OBRYS
100
AcDbLine
 10
43.8411059224
 20
188.3157116426
 30
0.0
 11
43.8411059224
 21
183.9157116426
 31
0.0
  0
LINE
  5
183
330
1F
100
AcDbEntity
  8
OBRYS
100
AcDbLine
 10
44.3411059224
 20
183.4157116426
 30
0.0
 11
44.9411059224
 21
183.4157116426
 31
0.0
  0
LINE
  5
184
330
1F
100
AcDbEntity
  8
OBRYS
100
AcDbLine
 10
44.9411059224
 20
183.4157116426
 30
0.0
 11
44.9411059224
 21
184.1157116426
 31
0.0
  0
LINE
  5
185
330
1F
100
AcDbEntity
  8
OBRYS
100
AcDbLine
 10
45.4411059224
 20
184.6157116426
 30
0.0
 11
45.6411059224
 21
184.6157116426
 31
0.0
  0
LINE
  5
186
330
1F
100
AcDbEntity
  8
OBRYS
100
AcDbLine
 10
46.1411059224
 20
184.1157116426
 30
0.0
 11
46.1411059224
 21
182.7157116426
 31
0.0
  0
LINE
  5
187
330
1F
100
AcDbEntity
  8
OBRYS
100
AcDbLine
 10
45.6411059224
 20
182.2157116426
 30
0.0
 11
43.1411059224
 21
182.2157116426
 31
0.0
  0
LINE
  5
188
330
1F
100
AcDbEntity
  8
OBRYS
100
AcDbLine
 10
42.6411059224
 20
266.7157116426
 30
0.0
 11
42.6411059224
 21
182.7157116426
 31
0.0
  0
LINE
  5
189
330
1F
100
AcDbEntity
  8
OBRYS
100
AcDbLine
 10
45.6411059224
 20
267.2157116426
 30
0.0
 11
43.1411059224
 21
267.2157116426
 31
0.0
  0
LINE
  5
18A
330
1F
100
AcDbEntity
  8
OBRYS
100
AcDbLine
 10
46.1411059224
 20
265.3157116426
 30
0.0
 11
46.1411059224
 21
266.7157116426
 31
0.0
  0
LINE
  5
18B
330
1F
100
AcDbEntity
  8
OBRYS
100
AcDbLine
 10
45.4411059224
 20
264.8157116426
 30
0.0
 11
45.6411059224
 21
264.8157116426
 31
0.0
  0
LINE
  5
18C
330
1F
100
AcDbEntity
  8
OBRYS
100
AcDbLine
 10
44.9411059224
 20
265.5157116426
 30
0.0
 11
44.9411059224
 21
265.3157116426
 31
0.0
  0
LINE
  5
18D
330
1F
100
AcDbEntity
  8
OBRYS
100
AcDbLine
 10
44.3411059224
 20
266.0157116426
 30
0.0
 11
44.4411059224
 21
266.0157116426
 31
0.0
  0
LINE
  5
18E
330
1F
100
AcDbEntity
  8
OBRYS
100
AcDbLine
 10
43.8411059224
 20
261.1157116426
 30
0.0
 11
43.8411059224
 21
265.5157116426
 31
0.0
  0
LINE
  5
18F
330
1F
100
AcDbEntity
  8
OBRYS
100
AcDbLine
 10
44.3411059224
 20
260.6157116426
 30
0.0
 11
44.9411059224
 21
260.6157116426
 31
0.0
  0
LINE
  5
190
330
1F
100
AcDbEntity
  8
OBRYS
100
AcDbLine
 10
44.9411059224
 20
260.6157116426
 30
0.0
 11
44.9411059224
 21
261.3157116426
 31
0.0
  0
LINE
  5
191
330
1F
100
AcDbEntity
  8
OBRYS
100
AcDbLine
 10
45.4411059224
 20
261.8157116426
 30
0.0
 11
45.6411059224
 21
261.8157116426
 31
0.0
  0
LINE
  5
192
330
1F
100
AcDbEntity
  8
OBRYS
100
AcDbLine
 10
46.1411059224
 20
261.3157116426
 30
0.0
 11
46.1411059224
 21
259.9157116426
 31
0.0
  0
LINE
  5
193
330
1F
100
AcDbEntity
  8
OBRYS
100
AcDbLine
 10
45.6411059224
 20
259.4157116426
 30
0.0
 11
44.3411059224
 21
259.4157116426
 31
0.0
  0
LINE
  5
194
330
1F
100
AcDbEntity
  8
OBRYS
100
AcDbLine
 10
43.8411059224
 20
241.9157116426
 30
0.0
 11
43.8411059224
 21
258.9157116426
 31
0.0
  0
LINE
  5
195
330
1F
100
AcDbEntity
  8
OBRYS
100
AcDbLine
 10
44.8411059224
 20
240.9157116426
 30
0.0
 11
62.4411059224
 21
240.9157116426
 31
0.0
  0
LINE
  5
196
330
1F
100
AcDbEntity
  8
OBRYS
100
AcDbLine
 10
63.4411059224
 20
258.9157116426
 30
0.0
 11
63.4411059224
 21
241.9157116426
 31
0.0
  0
LINE
  5
197
330
1F
100
AcDbEntity
  8
OBRYS
100
AcDbLine
 10
61.6411059224
 20
259.4157116426
 30
0.0
 11
62.9411059224
 21
259.4157116426
 31
0.0
  0
LINE
  5
198
330
1F
100
AcDbEntity
  8
OBRYS
100
AcDbLine
 10
61.1411059224
 20
261.3157116426
 30
0.0
 11
61.1411059224
 21
259.9157116426
 31
0.0
  0
LINE
  5
199
330
1F
100
AcDbEntity
  8
OBRYS
100
AcDbLine
 10
61.8411059224
 20
261.8157116426
 30
0.0
 11
61.6411059224
 21
261.8157116426
 31
0.0
  0
LINE
  5
19A
330
1F
100
AcDbEntity
  8
OBRYS
100
AcDbLine
 10
62.3411059224
 20
261.1157116426
 30
0.0
 11
62.3411059224
 21
261.3157116426
 31
0.0
  0
LINE
  5
19B
330
1F
100
AcDbEntity
  8
OBRYS
100
AcDbLine
 10
62.9411059224
 20
260.6157116426
 30
0.0
 11
62.8411059224
 21
260.6157116426
 31
0.0
  0
LINE
  5
19C
330
1F
100
AcDbEntity
  8
OBRYS
100
AcDbLine
 10
63.4411059224
 20
265.5157116426
 30
0.0
 11
63.4411059224
 21
261.1157116426
 31
0.0
  0
LINE
  5
19D
330
1F
100
AcDbEntity
  8
OBRYS
100
AcDbLine
 10
62.8411059224
 20
266.0157116426
 30
0.0
 11
62.9411059224
 21
266.0157116426
 31
0.0
  0
LINE
  5
19E
330
1F
100
AcDbEntity
  8
OBRYS
100
AcDbLine
 10
62.3411059224
 20
265.3157116426
 30
0.0
 11
62.3411059224
 21
265.5157116426
 31
0.0
  0
LINE
  5
19F
330
1F
100
AcDbEntity
  8
OBRYS
100
AcDbLine
 10
61.6411059224
 20
264.8157116426
 30
0.0
 11
61.8411059224
 21
264.8157116426
 31
0.0
  0
LINE
  5
1A0
330
1F
100
AcDbEntity
  8
OBRYS
100
AcDbLine
 10
61.1411059224
 20
266.7157116426
 30
0.0
 11
61.1411059224
 21
265.3157116426
 31
0.0
  0
LINE
  5
1A1
330
1F
100
AcDbEntity
  8
OBRYS
100
AcDbLine
 10
64.1411059224
 20
267.2157116426
 30
0.0
 11
61.6411059224
 21
267.2157116426
 31
0.0
  0
LINE
  5
1A2
330
1F
100
AcDbEntity
  8
OBRYS
100
AcDbLine
 10
64.6411059224
 20
266.7157116426
 30
0.0
 11
64.6411059224
 21
182.7157116426
 31
0.0
  0
LINE
  5
1A3
330
1F
100
AcDbEntity
  8
OBRYS
100
AcDbLine
 10
45.3411059224
 20
224.1157116426
 30
0.0
 11
43.8411059224
 21
224.1157116426
 31
0.0
  0
LINE
  5
1A4
330
1F
100
AcDbEntity
  8
OBRYS
100
AcDbLine
 10
43.8411059224
 20
213.9157116426
 30
0.0
 11
43.8411059224
 21
224.1157116426
 31
0.0
  0
LINE
  5
1A5
330
1F
100
AcDbEntity
  8
OBRYS
100
AcDbLine
 10
43.8411059224
 20
213.9157116426
 30
0.0
 11
45.3411059224
 21
213.9157116426
 31
0.0
  0
LINE
  5
1A6
330
1F
100
AcDbEntity
  8
OBRYS
100
AcDbLine
 10
45.8411059224
 20
213.4157116426
 30
0.0
 11
45.8411059224
 21
213.2157116426
 31
0.0
  0
LINE
  5
1A7
330
1F
100
AcDbEntity
  8
OBRYS
100
AcDbLine
 10
45.3411059224
 20
212.7157116426
 30
0.0
 11
43.8411059224
 21
212.7157116426
 31
0.0
  0
LINE
  5
1A8
330
1F
100
AcDbEntity
  8
OBRYS
100
AcDbLine
 10
43.8411059224
 20
209.7157116426
 30
0.0
 11
43.8411059224
 21
212.7157116426
 31
0.0
  0
LINE
  5
1A9
330
1F
100
AcDbEntity
  8
OBRYS
100
AcDbLine
 10
63.4411059224
 20
209.7157116426
 30
0.0
 11
43.8411059224
 21
209.7157116426
 31
0.0
  0
LINE
  5
1AA
330
1F
100
AcDbEntity
  8
OBRYS
100
AcDbLine
 10
63.4411059224
 20
212.7157116426
 30
0.0
 11
63.4411059224
 21
209.7157116426
 31
0.0
  0
LINE
  5
1AB
330
1F
100
AcDbEntity
  8
OBRYS
100
AcDbLine
 10
61.9411059224
 20
212.7157116426
 30
0.0
 11
63.4411059224
 21
212.7157116426
 31
0.0
  0
LINE
  5
1AC
330
1F
100
AcDbEntity
  8
OBRYS
100
AcDbLine
 10
61.4411059224
 20
213.4157116426
 30
0.0
 11
61.4411059224
 21
213.2157116426
 31
0.0
  0
LINE
  5
1AD
330
1F
100
AcDbEntity
  8
OBRYS
100
AcDbLine
 10
63.4411059224
 20
213.9157116426
 30
0.0
 11
61.9411059224
 21
213.9157116426
 31
0.0
  0
LINE
  5
1AE
330
1F
100
AcDbEntity
  8
OBRYS
100
AcDbLine
 10
63.4411059224
 20
224.1157116426
 30
0.0
 11
63.4411059224
 21
213.9157116426
 31
0.0
  0
LINE
  5
1AF
330
1F
100
AcDbEntity
  8
OBRYS
100
AcDbLine
 10
61.9411059224
 20
224.1157116426
 30
0.0
 11
63.4411059224
 21
224.1157116426
 31
0.0
  0
LINE
  5
1B0
330
1F
100
AcDbEntity
  8
OBRYS
100
AcDbLine
 10
61.4411059224
 20
224.8157116426
 30
0.0
 11
61.4411059224
 21
224.6157116426
 31
0.0
  0
LINE
  5
1B1
330
1F
100
AcDbEntity
  8
OBRYS
100
AcDbLine
 10
63.4411059224
 20
225.3157116426
 30
0.0
 11
61.9411059224
 21
225.3157116426
 31
0.0
  0
LINE
  5
1B2
330
1F
100
AcDbEntity
  8
OBRYS
100
AcDbLine
 10
63.4411059224
 20
235.5157116426
 30
0.0
 11
63.4411059224
 21
225.3157116426
 31
0.0
  0
LINE
  5
1B3
330
1F
100
AcDbEntity
  8
OBRYS
100
AcDbLine
 10
61.9411059224
 20
235.5157116426
 30
0.0
 11
63.4411059224
 21
235.5157116426
 31
0.0
  0
LINE
  5
1B4
330
1F
100
AcDbEntity
  8
OBRYS
100
AcDbLine
 10
61.4411059224
 20
236.2157116426
 30
0.0
 11
61.4411059224
 21
236.0157116426
 31
0.0
  0
LINE
  5
1B5
330
1F
100
AcDbEntity
  8
OBRYS
100
AcDbLine
 10
63.4411059224
 20
236.7157116426
 30
0.0
 11
61.9411059224
 21
236.7157116426
 31
0.0
  0
LINE
  5
1B6
330
1F
100
AcDbEntity
  8
OBRYS
100
AcDbLine
 10
63.4411059224
 20
239.7157116426
 30
0.0
 11
63.4411059224
 21
236.7157116426
 31
0.0
  0
LINE
  5
1B7
330
1F
100
AcDbEntity
  8
OBRYS
100
AcDbLine
 10
43.8411059224
 20
239.7157116426
 30
0.0
 11
63.4411059224
 21
239.7157116426
 31
0.0
  0
LINE
  5
1B8
330
1F
100
AcDbEntity
  8
OBRYS
100
AcDbLine
 10
43.8411059224
 20
236.7157116426
 30
0.0
 11
43.8411059224
 21
239.7157116426
 31
0.0
  0
LINE
  5
1B9
330
1F
100
AcDbEntity
  8
OBRYS
100
AcDbLine
 10
43.8411059224
 20
236.7157116426
 30
0.0
 11
45.3411059224
 21
236.7157116426
 31
0.0
  0
LINE
  5
1BA
330
1F
100
AcDbEntity
  8
OBRYS
100
AcDbLine
 10
45.8411059224
 20
236.2157116426
 30
0.0
 11
45.8411059224
 21
236.0157116426
 31
0.0
  0
LINE
  5
1BB
330
1F
100
AcDbEntity
  8
OBRYS
100
AcDbLine
 10
45.3411059224
 20
235.5157116426
 30
0.0
 11
43.8411059224
 21
235.5157116426
 31
0.0
  0
LINE
  5
1BC
330
1F
100
AcDbEntity
  8
OBRYS
100
AcDbLine
 10
43.8411059224
 20
225.3157116426
 30
0.0
 11
43.8411059224
 21
235.5157116426
 31
0.0
  0
LINE
  5
1BD
330
1F
100
AcDbEntity
  8
OBRYS
100
AcDbLine
 10
43.8411059224
 20
225.3157116426
 30
0.0
 11
45.3411059224
 21
225.3157116426
 31
0.0
  0
LINE
  5
1BE
330
1F
100
AcDbEntity
  8
OBRYS
100
AcDbLine
 10
51.5411059224
 20
208.5157116426
 30
0.0
 11
53.0411059224
 21
208.5157116426
 31
0.0
  0
LINE
  5
1BF
330
1F
100
AcDbEntity
  8
OBRYS
100
AcDbLine
 10
44.8411059224
 20
208.5157116426
 30
0.0
 11
50.3411059224
 21
208.5157116426
 31
0.0
  0
LINE
  5
1C0
330
1F
100
AcDbEntity
  8
OBRYS
100
AcDbLine
 10
54.2411059224
 20
208.5157116426
 30
0.0
 11
55.7411059224
 21
208.5157116426
 31
0.0
  0
DIMENSION
  5
1C1
330
1F
100
AcDbEntity
  8
KOTY
100
AcDbDimension
  2
*D6
 10
36.6411059224
 20
182.2157116426
 30
0.0
 11
36.6411059224
 21
224.7157116426
 31
0.0
 70
   160
 71
     2
 42
-1.0
  3
SLDDIMSTYLE0
100
AcDbAlignedDimension
 13
43.1411059224
 23
267.2157116426
 33
0.0
 14
43.1411059224
 24
182.2157116426
 34
0.0
 50
90.0
100
AcDbRotatedDimension
  0
DIMENSION
  5
1CB
330
1F
100
AcDbEntity
  8
KOTY
100
AcDbDimension
  2
*D7
 10
61.1411059224
 20
273.2157116426
 30
0.0
 11
53.6411059224
 21
273.2157116426
 31
0.0
 70
   160
 71
     2
 42
-1.0
  3
SLDDIMSTYLE1
100
AcDbAlignedDimension
 13
46.1411059224
 23
266.7157116426
 33
0.0
 14
61.1411059224
 24
266.7157116426
 34
0.0
100
AcDbRotatedDimension
  0
DIMENSION
  5
1D7
330
1F
100
AcDbEntity
  8
KOTY
100
AcDbDimension
  2
*D8
 10
42.6411059224
 20
279.2157116426
 30
0.0
 11
53.6411059224
 21
279.2157116426
 31
0.0
 70
   160
 71
     2
 42
-1.0
  3
SLDDIMSTYLE0
100
AcDbAlignedDimension
 13
64.6411059224
 23
266.7157116426
 33
0.0
 14
42.6411059224
 24
266.7157116426
 34
0.0
100
AcDbRotatedDimension
  0
DIMENSION
  5
1E1
330
1F
100
AcDbEntity
  8
KOTY
100
AcDbDimension
  2
*D9
 10
70.6411059224
 20
240.9157116426
 30
0.0
 11
70.6411059224
 21
254.0657116426
 31
0.0
 70
   160
 71
     2
 42
-1.0
  3
SLDDIMSTYLE2
100
AcDbAlignedDimension
 13
64.1411059224
 23
267.2157116426
 33
0.0
 14
62.4411059224
 24
240.9157116426
 34
0.0
 50
90.0
100
AcDbRotatedDimension
  0
DIMENSION
  5
1EB
330
1F
100
AcDbEntity
  8
KOTY
100
AcDbDimension
  2
*D10
 10
70.6411059224
 20
209.7157116426
 30
0.0
 11
70.6411059224
 21
224.7157116426
 31
0.0
 70
   160
 71
     2
 42
-1.0
  3
SLDDIMSTYLE0
100
AcDbAlignedDimension
 13
63.4411059224
 23
239.7157116426
 33
0.0
 14
63.4411059224
 24
209.7157116426
 34
0.0
 50
90.0
100
AcDbRotatedDimension
  0
ARC
  5
1F5
330
1F
100
AcDbEntity
  8
OBRYS
100
AcDbCircle
 10
44.3221221013
 20
80.4342671286
 30
0.0
 40
0.5
100
AcDbArc
 50
0.0
 51
90.0
  0
ARC
  5
1F6
330
1F
100
AcDbEntity
  8
OBRYS
100
AcDbCircle
 10
44.3221221013
 20
80.2342671286
 30
0.0
 40
0.5
100
AcDbArc
 50
270.0
 51
0.0
  0
ARC
  5
1F7
330
1F
100
AcDbEntity
  8
OBRYS
100
AcDbCircle
 10
44.3221221013
 20
69.0342671286
 30
0.0
 40
0.5
100
AcDbArc
 50
0.0
 51
90.0
  0
ARC
  5
1F8
330
1F
100
AcDbEntity
  8
OBRYS
100
AcDbCircle
 10
44.3221221013
 20
68.8342671286
 30
0.0
 40
0.5000000000000142
100
AcDbArc
 50
270.0
 51
0.0
  0
ARC
  5
1F9
330
1F
100
AcDbEntity
  8
OBRYS
100
AcDbCircle
 10
44.3221221013
 20
57.6342671286
 30
0.0
 40
0.5
100
AcDbArc
 50
0.0
 51
90.0
  0
ARC
  5
1FA
330
1F
100
AcDbEntity
  8
OBRYS
100
AcDbCircle
 10
44.3221221013
 20
57.4342671286
 30
0.0
 40
0.5
100
AcDbArc
 50
270.0
 51
0.0
  0
ARC
  5
1FB
330
1F
100
AcDbEntity
  8
OBRYS
100
AcDbCircle
 10
60.9221221013
 20
57.4342671286
 30
0.0
 40
0.5
100
AcDbArc
 50
180.0
 51
270.0
  0
ARC
  5
1FC
330
1F
100
AcDbEntity
  8
OBRYS
100
AcDbCircle
 10
60.9221221013
 20
57.6342671286
 30
0.0
 40
0.5
100
AcDbArc
 50
90.0
 51
180.0
  0
ARC
  5
1FD
330
1F
100
AcDbEntity
  8
OBRYS
100
AcDbCircle
 10
60.9221221013
 20
68.8342671286
 30
0.0
 40
0.5000000000000142
100
AcDbArc
 50
180.0
 51
270.0
  0
ARC
  5
1FE
330
1F
100
AcDbEntity
  8
OBRYS
100
AcDbCircle
 10
60.9221221013
 20
69.0342671286
 30
0.0
 40
0.5
100
AcDbArc
 50
90.0
 51
180.0
  0
ARC
  5
1FF
330
1F
100
AcDbEntity
  8
OBRYS
100
AcDbCircle
 10
60.9221221013
 20
80.2342671286
 30
0.0
 40
0.5
100
AcDbArc
 50
180.0
 51
270.0
  0
ARC
  5
200
330
1F
100
AcDbEntity
  8
OBRYS
100
AcDbCircle
 10
60.9221221013
 20
80.4342671286
 30
0.0
 40
0.5
100
AcDbArc
 50
90.0
 51
180.0
  0
ARC
  5
201
330
1F
100
AcDbEntity
  8
OBRYS
100
AcDbCircle
 10
75.1221221013
 20
104.9342671286
 30
0.0
 40
0.5
100
AcDbArc
 50
270.0
 51
0.0
  0
LINE
  5
202
330
1F
100
AcDbEntity
  8
OBRYS
100
AcDbLine
 10
74.9221221013
 20
104.4342671286
 30
0.0
 11
75.1221221013
 21
104.4342671286
 31
0.0
  0
ARC
  5
203
330
1F
100
AcDbEntity
  8
OBRYS
100
AcDbCircle
 10
74.9221221013
 20
104.9342671286
 30
0.0
 40
0.5
100
AcDbArc
 50
180.0
 51
270.0
  0
LINE
  5
204
330
1F
100
AcDbEntity
  8
OBRYS
100
AcDbLine
 10
74.4221221013
 20
110.2342671286
 30
0.0
 11
74.4221221013
 21
104.9342671286
 31
0.0
  0
LINE
  5
205
330
1F
100
AcDbEntity
  8
OBRYS
100
AcDbLine
 10
63.6221221013
 20
110.2342671286
 30
0.0
 11
74.4221221013
 21
110.2342671286
 31
0.0
  0
LINE
  5
206
330
1F
100
AcDbEntity
  8
OBRYS
100
AcDbLine
 10
74.4221221013
 20
27.6342671286
 30
0.0
 11
63.6221221013
 21
27.6342671286
 31
0.0
  0
LINE
  5
207
330
1F
100
AcDbEntity
  8
OBRYS
100
AcDbLine
 10
74.4221221013
 20
32.9342671286
 30
0.0
 11
74.4221221013
 21
27.6342671286
 31
0.0
  0
ARC
  5
208
330
1F
100
AcDbEntity
  8
OBRYS
100
AcDbCircle
 10
74.9221221013
 20
32.9342671286
 30
0.0
 40
0.5
100
AcDbArc
 50
90.0
 51
180.0
  0
LINE
  5
209
330
1F
100
AcDbEntity
  8
OBRYS
100
AcDbLine
 10
75.1221221013
 20
33.4342671286
 30
0.0
 11
74.9221221013
 21
33.4342671286
 31
0.0
  0
ARC
  5
20A
330
1F
100
AcDbEntity
  8
OBRYS
100
AcDbCircle
 10
75.1221221013
 20
32.9342671286
 30
0.0
 40
0.5
100
AcDbArc
 50
0.0
 51
90.0
  0
LINE
  5
20B
330
1F
100
AcDbEntity
  8
OBRYS
100
AcDbLine
 10
75.6221221013
 20
26.9342671286
 30
0.0
 11
75.6221221013
 21
32.9342671286
 31
0.0
  0
ARC
  5
20C
330
1F
100
AcDbEntity
  8
OBRYS
100
AcDbCircle
 10
75.1221221013
 20
26.9342671286
 30
0.0
 40
0.5
100
AcDbArc
 50
270.0
 51
0.0
  0
ARC
  5
20D
330
1F
100
AcDbEntity
  8
OBRYS
100
AcDbCircle
 10
60.6221221013
 20
26.9342671286
 30
0.0
 40
0.5
100
AcDbArc
 50
180.0
 51
270.0
  0
ARC
  5
20E
330
1F
100
AcDbEntity
  8
OBRYS
100
AcDbCircle
 10
60.6221221013
 20
28.3342671286
 30
0.0
 40
0.5
100
AcDbArc
 50
90.0
 51
180.0
  0
ARC
  5
20F
330
1F
100
AcDbEntity
  8
OBRYS
100
AcDbCircle
 10
60.8221221013
 20
28.3342671286
 30
0.0
 40
0.5
100
AcDbArc
 50
0.0
 51
90.0
  0
ARC
  5
210
330
1F
100
AcDbEntity
  8
OBRYS
100
AcDbCircle
 10
61.9221221013
 20
28.1342671286
 30
0.0
 40
0.5
100
AcDbArc
 50
270.0
 51
0.0
  0
ARC
  5
211
330
1F
100
AcDbEntity
  8
OBRYS
100
AcDbCircle
 10
61.9221221013
 20
32.5342671286
 30
0.0
 40
0.5
100
AcDbArc
 50
0.0
 51
90.0
  0
ARC
  5
212
330
1F
100
AcDbEntity
  8
OBRYS
100
AcDbCircle
 10
61.8221221013
 20
32.5342671286
 30
0.0
 40
0.5
100
AcDbArc
 50
90.0
 51
180.0
  0
ARC
  5
213
330
1F
100
AcDbEntity
  8
OBRYS
100
AcDbCircle
 10
60.8221221013
 20
32.3342671286
 30
0.0
 40
0.5
100
AcDbArc
 50
270.0
 51
0.0
  0
ARC
  5
214
330
1F
100
AcDbEntity
  8
OBRYS
100
AcDbCircle
 10
60.6221221013
 20
32.3342671286
 30
0.0
 40
0.5000000000000071
100
AcDbArc
 50
180.0
 51
270.0
  0
ARC
  5
215
330
1F
100
AcDbEntity
  8
OBRYS
100
AcDbCircle
 10
60.6221221013
 20
33.7342671286
 30
0.0
 40
0.5
100
AcDbArc
 50
90.0
 51
180.0
  0
ARC
  5
216
330
1F
100
AcDbEntity
  8
OBRYS
100
AcDbCircle
 10
61.9221221013
 20
34.7342671286
 30
0.0
 40
0.5
100
AcDbArc
 50
270.0
 51
0.0
  0
ARC
  5
217
330
1F
100
AcDbEntity
  8
OBRYS
100
AcDbCircle
 10
61.4221221013
 20
51.7342671286
 30
0.0
 40
1.0
100
AcDbArc
 50
0.0
 51
90.0
  0
ARC
  5
218
330
1F
100
AcDbEntity
  8
OBRYS
100
AcDbCircle
 10
55.3221221013
 20
53.1842671286
 30
0.0
 40
0.7499999999999986
100
AcDbArc
 50
216.8698976458
 51
323.1301023542
  0
ARC
  5
219
330
1F
100
AcDbEntity
  8
OBRYS
100
AcDbCircle
 10
52.6221221013
 20
53.1842671286
 30
0.0
 40
0.7500000000000043
100
AcDbArc
 50
216.8698976458
 51
323.1301023542
  0
ARC
  5
21A
330
1F
100
AcDbEntity
  8
OBRYS
100
AcDbCircle
 10
49.9221221013
 20
53.1842671286
 30
0.0
 40
0.7499999999999986
100
AcDbArc
 50
216.8698976458
 51
323.1301023542
  0
ARC
  5
21B
330
1F
100
AcDbEntity
  8
OBRYS
100
AcDbCircle
 10
43.8221221013
 20
51.7342671286
 30
0.0
 40
1.0
100
AcDbArc
 50
90.0
 51
180.0
  0
ARC
  5
21C
330
1F
100
AcDbEntity
  8
OBRYS
100
AcDbCircle
 10
43.3221221013
 20
34.7342671286
 30
0.0
 40
0.5
100
AcDbArc
 50
180.0
 51
270.0
  0
ARC
  5
21D
330
1F
100
AcDbEntity
  8
OBRYS
100
AcDbCircle
 10
44.6221221013
 20
33.7342671286
 30
0.0
 40
0.5
100
AcDbArc
 50
0.0
 51
90.0
  0
ARC
  5
21E
330
1F
100
AcDbEntity
  8
OBRYS
100
AcDbCircle
 10
44.6221221013
 20
32.3342671286
 30
0.0
 40
0.5
100
AcDbArc
 50
270.0
 51
0.0
  0
ARC
  5
21F
330
1F
100
AcDbEntity
  8
OBRYS
100
AcDbCircle
 10
44.4221221013
 20
32.3342671286
 30
0.0
 40
0.5
100
AcDbArc
 50
180.0
 51
270.0
  0
ARC
  5
220
330
1F
100
AcDbEntity
  8
OBRYS
100
AcDbCircle
 10
43.4221221013
 20
32.5342671286
 30
0.0
 40
0.5
100
AcDbArc
 50
0.0
 51
90.0
  0
ARC
  5
221
330
1F
100
AcDbEntity
  8
OBRYS
100
AcDbCircle
 10
43.3221221013
 20
32.5342671286
 30
0.0
 40
0.5
100
AcDbArc
 50
90.0
 51
180.0
  0
ARC
  5
222
330
1F
100
AcDbEntity
  8
OBRYS
100
AcDbCircle
 10
43.3221221013
 20
28.1342671286
 30
0.0
 40
0.5
100
AcDbArc
 50
180.0
 51
270.0
  0
ARC
  5
223
330
1F
100
AcDbEntity
  8
OBRYS
100
AcDbCircle
 10
43.4221221013
 20
28.1342671286
 30
0.0
 40
0.5
100
AcDbArc
 50
270.0
 51
0.0
  0
ARC
  5
224
330
1F
100
AcDbEntity
  8
OBRYS
100
AcDbCircle
 10
44.4221221013
 20
28.3342671286
 30
0.0
 40
0.5
100
AcDbArc
 50
90.0
 51
180.0
  0
ARC
  5
225
330
1F
100
AcDbEntity
  8
OBRYS
100
AcDbCircle
 10
44.6221221013
 20
28.3342671286
 30
0.0
 40
0.5
100
AcDbArc
 50
0.0
 51
90.0
  0
ARC
  5
226
330
1F
100
AcDbEntity
  8
OBRYS
100
AcDbCircle
 10
44.6221221013
 20
26.9342671286
 30
0.0
 40
0.5
100
AcDbArc
 50
270.0
 51
0.0
  0
ARC
  5
227
330
1F
100
AcDbEntity
  8
OBRYS
100
AcDbCircle
 10
42.1221221013
 20
26.9342671286
 30
0.0
 40
0.5
100
AcDbArc
 50
180.0
 51
270.0
  0
ARC
  5
228
330
1F
100
AcDbEntity
  8
OBRYS
100
AcDbCircle
 10
42.1221221013
 20
110.9342671286
 30
0.0
 40
0.5
100
AcDbArc
 50
90.0
 51
180.0
  0
ARC
  5
229
330
1F
100
AcDbEntity
  8
OBRYS
100
AcDbCircle
 10
44.6221221013
 20
110.9342671286
 30
0.0
 40
0.5000000000000142
100
AcDbArc
 50
0.0
 51
90.0
  0
ARC
  5
22A
330
1F
100
AcDbEntity
  8
OBRYS
100
AcDbCircle
 10
44.4221221013
 20
109.5342671286
 30
0.0
 40
0.5
100
AcDbArc
 50
180.0
 51
270.0
  0
ARC
  5
22B
330
1F
100
AcDbEntity
  8
OBRYS
100
AcDbCircle
 10
43.4221221013
 20
109.7342671286
 30
0.0
 40
0.5
100
AcDbArc
 50
0.0
 51
90.0
  0
ARC
  5
22C
330
1F
100
AcDbEntity
  8
OBRYS
100
AcDbCircle
 10
43.3221221013
 20
109.7342671286
 30
0.0
 40
0.5
100
AcDbArc
 50
90.0
 51
180.0
  0
ARC
  5
22D
330
1F
100
AcDbEntity
  8
OBRYS
100
AcDbCircle
 10
43.3221221013
 20
105.3342671286
 30
0.0
 40
0.5
100
AcDbArc
 50
180.0
 51
270.0
  0
ARC
  5
22E
330
1F
100
AcDbEntity
  8
OBRYS
100
AcDbCircle
 10
43.4221221013
 20
105.3342671286
 30
0.0
 40
0.5
100
AcDbArc
 50
270.0
 51
0.0
  0
ARC
  5
22F
330
1F
100
AcDbEntity
  8
OBRYS
100
AcDbCircle
 10
44.4221221013
 20
105.5342671286
 30
0.0
 40
0.5
100
AcDbArc
 50
90.0
 51
180.0
  0
ARC
  5
230
330
1F
100
AcDbEntity
  8
OBRYS
100
AcDbCircle
 10
44.6221221013
 20
105.5342671286
 30
0.0
 40
0.5
100
AcDbArc
 50
0.0
 51
90.0
  0
ARC
  5
231
330
1F
100
AcDbEntity
  8
OBRYS
100
AcDbCircle
 10
44.6221221013
 20
104.1342671286
 30
0.0
 40
0.5
100
AcDbArc
 50
270.0
 51
0.0
  0
ARC
  5
232
330
1F
100
AcDbEntity
  8
OBRYS
100
AcDbCircle
 10
43.3221221013
 20
103.1342671286
 30
0.0
 40
0.5000000000000142
100
AcDbArc
 50
90.0
 51
180.0
  0
ARC
  5
233
330
1F
100
AcDbEntity
  8
OBRYS
100
AcDbCircle
 10
43.8221221013
 20
86.1342671286
 30
0.0
 40
1.0
100
AcDbArc
 50
180.0
 51
270.0
  0
ARC
  5
234
330
1F
100
AcDbEntity
  8
OBRYS
100
AcDbCircle
 10
61.4221221013
 20
86.1342671286
 30
0.0
 40
1.0
100
AcDbArc
 50
270.0
 51
0.0
  0
ARC
  5
235
330
1F
100
AcDbEntity
  8
OBRYS
100
AcDbCircle
 10
61.9221221013
 20
103.1342671286
 30
0.0
 40
0.5
100
AcDbArc
 50
0.0
 51
90.0
  0
ARC
  5
236
330
1F
100
AcDbEntity
  8
OBRYS
100
AcDbCircle
 10
60.6221221013
 20
104.1342671286
 30
0.0
 40
0.5
100
AcDbArc
 50
180.0
 51
270.0
  0
ARC
  5
237
330
1F
100
AcDbEntity
  8
OBRYS
100
AcDbCircle
 10
60.6221221013
 20
105.5342671286
 30
0.0
 40
0.5
100
AcDbArc
 50
90.0
 51
180.0
  0
ARC
  5
238
330
1F
100
AcDbEntity
  8
OBRYS
100
AcDbCircle
 10
60.8221221013
 20
105.5342671286
 30
0.0
 40
0.5
100
AcDbArc
 50
0.0
 51
90.0
  0
ARC
  5
239
330
1F
100
AcDbEntity
  8
OBRYS
100
AcDbCircle
 10
61.9221221013
 20
105.3342671286
 30
0.0
 40
0.5
100
AcDbArc
 50
270.0
 51
0.0
  0
ARC
  5
23A
330
1F
100
AcDbEntity
  8
OBRYS
100
AcDbCircle
 10
61.9221221013
 20
109.7342671286
 30
0.0
 40
0.5
100
AcDbArc
 50
0.0
 51
90.0
  0
ARC
  5
23B
330
1F
100
AcDbEntity
  8
OBRYS
100
AcDbCircle
 10
61.8221221013
 20
109.7342671286
 30
0.0
 40
0.5
100
AcDbArc
 50
90.0
 51
180.0
  0
ARC
  5
23C
330
1F
100
AcDbEntity
  8
OBRYS
100
AcDbCircle
 10
60.8221221013
 20
109.5342671286
 30
0.0
 40
0.5
100
AcDbArc
 50
270.0
 51
0.0
  0
ARC
  5
23D
330
1F
100
AcDbEntity
  8
OBRYS
100
AcDbCircle
 10
60.6221221013
 20
109.5342671286
 30
0.0
 40
0.5
100
AcDbArc
 50
180.0
 51
270.0
  0
ARC
  5
23E
330
1F
100
AcDbEntity
  8
OBRYS
100
AcDbCircle
 10
60.6221221013
 20
110.9342671286
 30
0.0
 40
0.5
100
AcDbArc
 50
90.0
 51
180.0
  0
ARC
  5
23F
330
1F
100
AcDbEntity
  8
OBRYS
100
AcDbCircle
 10
75.1221221013
 20
110.9342671286
 30
0.0
 40
0.5
100
AcDbArc
 50
0.0
 51
90.0
  0
LINE
  5
240
330
1F
100
AcDbEntity
  8
OBRYS
100
AcDbLine
 10
75.6221221013
 20
104.9342671286
 30
0.0
 11
75.6221221013
 21
110.9342671286
 31
0.0
  0
ARC
  5
241
330
1F
100
AcDbEntity
  8
OBRYS
100
AcDbCircle
 10
44.6221221013
 20
109.5342671286
 30
0.0
 40
0.5000000000000071
100
AcDbArc
 50
270.0
 51
0.0
  0
LINE
  5
242
330
1F
100
AcDbEntity
  8
OBRYS
100
AcDbLine
 10
60.4221221013
 20
69.0342671286
 30
0.0
 11
60.4221221013
 21
68.8342671286
 31
0.0
  0
LINE
  5
243
330
1F
100
AcDbEntity
  8
OBRYS
100
AcDbLine
 10
42.1221221013
 20
26.4342671286
 30
0.0
 11
44.6221221013
 21
26.4342671286
 31
0.0
  0
LINE
  5
244
330
1F
100
AcDbEntity
  8
OBRYS
100
AcDbLine
 10
45.1221221013
 20
26.9342671286
 30
0.0
 11
45.1221221013
 21
28.3342671286
 31
0.0
  0
LINE
  5
245
330
1F
100
AcDbEntity
  8
OBRYS
100
AcDbLine
 10
44.6221221013
 20
28.8342671286
 30
0.0
 11
44.4221221013
 21
28.8342671286
 31
0.0
  0
LINE
  5
246
330
1F
100
AcDbEntity
  8
OBRYS
100
AcDbLine
 10
43.9221221013
 20
28.3342671286
 30
0.0
 11
43.9221221013
 21
28.1342671286
 31
0.0
  0
LINE
  5
247
330
1F
100
AcDbEntity
  8
OBRYS
100
AcDbLine
 10
43.4221221013
 20
27.6342671286
 30
0.0
 11
43.3221221013
 21
27.6342671286
 31
0.0
  0
LINE
  5
248
330
1F
100
AcDbEntity
  8
OBRYS
100
AcDbLine
 10
42.8221221013
 20
28.1342671286
 30
0.0
 11
42.8221221013
 21
32.5342671286
 31
0.0
  0
LINE
  5
249
330
1F
100
AcDbEntity
  8
OBRYS
100
AcDbLine
 10
43.3221221013
 20
33.0342671286
 30
0.0
 11
43.4221221013
 21
33.0342671286
 31
0.0
  0
LINE
  5
24A
330
1F
100
AcDbEntity
  8
OBRYS
100
AcDbLine
 10
43.9221221013
 20
32.5342671286
 30
0.0
 11
43.9221221013
 21
32.3342671286
 31
0.0
  0
LINE
  5
24B
330
1F
100
AcDbEntity
  8
OBRYS
100
AcDbLine
 10
44.4221221013
 20
31.8342671286
 30
0.0
 11
44.6221221013
 21
31.8342671286
 31
0.0
  0
LINE
  5
24C
330
1F
100
AcDbEntity
  8
OBRYS
100
AcDbLine
 10
45.1221221013
 20
32.3342671286
 30
0.0
 11
45.1221221013
 21
33.7342671286
 31
0.0
  0
LINE
  5
24D
330
1F
100
AcDbEntity
  8
OBRYS
100
AcDbLine
 10
44.6221221013
 20
34.2342671286
 30
0.0
 11
43.3221221013
 21
34.2342671286
 31
0.0
  0
LINE
  5
24E
330
1F
100
AcDbEntity
  8
OBRYS
100
AcDbLine
 10
42.8221221013
 20
34.7342671286
 30
0.0
 11
42.8221221013
 21
51.7342671286
 31
0.0
  0
LINE
  5
24F
330
1F
100
AcDbEntity
  8
OBRYS
100
AcDbLine
 10
49.3221221013
 20
52.7342671286
 30
0.0
 11
43.8221221013
 21
52.7342671286
 31
0.0
  0
LINE
  5
250
330
1F
100
AcDbEntity
  8
OBRYS
100
AcDbLine
 10
62.4221221013
 20
51.7342671286
 30
0.0
 11
62.4221221013
 21
34.7342671286
 31
0.0
  0
LINE
  5
251
330
1F
100
AcDbEntity
  8
OBRYS
100
AcDbLine
 10
60.6221221013
 20
34.2342671286
 30
0.0
 11
61.9221221013
 21
34.2342671286
 31
0.0
  0
LINE
  5
252
330
1F
100
AcDbEntity
  8
OBRYS
100
AcDbLine
 10
60.1221221013
 20
32.3342671286
 30
0.0
 11
60.1221221013
 21
33.7342671286
 31
0.0
  0
LINE
  5
253
330
1F
100
AcDbEntity
  8
OBRYS
100
AcDbLine
 10
60.8221221013
 20
31.8342671286
 30
0.0
 11
60.6221221013
 21
31.8342671286
 31
0.0
  0
LINE
  5
254
330
1F
100
AcDbEntity
  8
OBRYS
100
AcDbLine
 10
61.3221221013
 20
32.5342671286
 30
0.0
 11
61.3221221013
 21
32.3342671286
 31
0.0
  0
LINE
  5
255
330
1F
100
AcDbEntity
  8
OBRYS
100
AcDbLine
 10
61.9221221013
 20
33.0342671286
 30
0.0
 11
61.8221221013
 21
33.0342671286
 31
0.0
  0
LINE
  5
256
330
1F
100
AcDbEntity
  8
OBRYS
100
AcDbLine
 10
62.4221221013
 20
32.5342671286
 30
0.0
 11
62.4221221013
 21
28.1342671286
 31
0.0
  0
LINE
  5
257
330
1F
100
AcDbEntity
  8
OBRYS
100
AcDbLine
 10
61.9221221013
 20
27.6342671286
 30
0.0
 11
61.3221221013
 21
27.6342671286
 31
0.0
  0
LINE
  5
258
330
1F
100
AcDbEntity
  8
OBRYS
100
AcDbLine
 10
61.3221221013
 20
27.6342671286
 30
0.0
 11
61.3221221013
 21
28.3342671286
 31
0.0
  0
LINE
  5
259
330
1F
100
AcDbEntity
  8
OBRYS
100
AcDbLine
 10
60.8221221013
 20
28.8342671286
 30
0.0
 11
60.6221221013
 21
28.8342671286
 31
0.0
  0
LINE
  5
25A
330
1F
100
AcDbEntity
  8
OBRYS
100
AcDbLine
 10
60.1221221013
 20
28.3342671286
 30
0.0
 11
60.1221221013
 21
26.9342671286
 31
0.0
  0
LINE
  5
25B
330
1F
100
AcDbEntity
  8
OBRYS
100
AcDbLine
 10
60.6221221013
 20
26.4342671286
 30
0.0
 11
75.1221221013
 21
26.4342671286
 31
0.0
  0
LINE
  5
25C
330
1F
100
AcDbEntity
  8
OBRYS
100
AcDbLine
 10
63.6221221013
 20
110.2342671286
 30
0.0
 11
63.6221221013
 21
27.6342671286
 31
0.0
  0
LINE
  5
25D
330
1F
100
AcDbEntity
  8
OBRYS
100
AcDbLine
 10
60.6221221013
 20
111.4342671286
 30
0.0
 11
75.1221221013
 21
111.4342671286
 31
0.0
  0
LINE
  5
25E
330
1F
100
AcDbEntity
  8
OBRYS
100
AcDbLine
 10
60.1221221013
 20
109.5342671286
 30
0.0
 11
60.1221221013
 21
110.9342671286
 31
0.0
  0
LINE
  5
25F
330
1F
100
AcDbEntity
  8
OBRYS
100
AcDbLine
 10
60.8221221013
 20
109.0342671286
 30
0.0
 11
60.6221221013
 21
109.0342671286
 31
0.0
  0
LINE
  5
260
330
1F
100
AcDbEntity
  8
OBRYS
100
AcDbLine
 10
61.3221221013
 20
109.7342671286
 30
0.0
 11
61.3221221013
 21
109.5342671286
 31
0.0
  0
LINE
  5
261
330
1F
100
AcDbEntity
  8
OBRYS
100
AcDbLine
 10
61.9221221013
 20
110.2342671286
 30
0.0
 11
61.8221221013
 21
110.2342671286
 31
0.0
  0
LINE
  5
262
330
1F
100
AcDbEntity
  8
OBRYS
100
AcDbLine
 10
62.4221221013
 20
105.3342671286
 30
0.0
 11
62.4221221013
 21
109.7342671286
 31
0.0
  0
LINE
  5
263
330
1F
100
AcDbEntity
  8
OBRYS
100
AcDbLine
 10
61.9221221013
 20
104.8342671286
 30
0.0
 11
61.3221221013
 21
104.8342671286
 31
0.0
  0
LINE
  5
264
330
1F
100
AcDbEntity
  8
OBRYS
100
AcDbLine
 10
61.3221221013
 20
104.8342671286
 30
0.0
 11
61.3221221013
 21
105.5342671286
 31
0.0
  0
LINE
  5
265
330
1F
100
AcDbEntity
  8
OBRYS
100
AcDbLine
 10
60.8221221013
 20
106.0342671286
 30
0.0
 11
60.6221221013
 21
106.0342671286
 31
0.0
  0
LINE
  5
266
330
1F
100
AcDbEntity
  8
OBRYS
100
AcDbLine
 10
60.1221221013
 20
105.5342671286
 30
0.0
 11
60.1221221013
 21
104.1342671286
 31
0.0
  0
LINE
  5
267
330
1F
100
AcDbEntity
  8
OBRYS
100
AcDbLine
 10
60.6221221013
 20
103.6342671286
 30
0.0
 11
61.9221221013
 21
103.6342671286
 31
0.0
  0
LINE
  5
268
330
1F
100
AcDbEntity
  8
OBRYS
100
AcDbLine
 10
62.4221221013
 20
86.1342671286
 30
0.0
 11
62.4221221013
 21
103.1342671286
 31
0.0
  0
LINE
  5
269
330
1F
100
AcDbEntity
  8
OBRYS
100
AcDbLine
 10
61.4221221013
 20
85.1342671286
 30
0.0
 11
43.8221221013
 21
85.1342671286
 31
0.0
  0
LINE
  5
26A
330
1F
100
AcDbEntity
  8
OBRYS
100
AcDbLine
 10
42.8221221013
 20
103.1342671286
 30
0.0
 11
42.8221221013
 21
86.1342671286
 31
0.0
  0
LINE
  5
26B
330
1F
100
AcDbEntity
  8
OBRYS
100
AcDbLine
 10
44.6221221013
 20
103.6342671286
 30
0.0
 11
43.3221221013
 21
103.6342671286
 31
0.0
  0
LINE
  5
26C
330
1F
100
AcDbEntity
  8
OBRYS
100
AcDbLine
 10
45.1221221013
 20
105.5342671286
 30
0.0
 11
45.1221221013
 21
104.1342671286
 31
0.0
  0
LINE
  5
26D
330
1F
100
AcDbEntity
  8
OBRYS
100
AcDbLine
 10
44.4221221013
 20
106.0342671286
 30
0.0
 11
44.6221221013
 21
106.0342671286
 31
0.0
  0
LINE
  5
26E
330
1F
100
AcDbEntity
  8
OBRYS
100
AcDbLine
 10
43.9221221013
 20
105.3342671286
 30
0.0
 11
43.9221221013
 21
105.5342671286
 31
0.0
  0
LINE
  5
26F
330
1F
100
AcDbEntity
  8
OBRYS
100
AcDbLine
 10
43.3221221013
 20
104.8342671286
 30
0.0
 11
43.4221221013
 21
104.8342671286
 31
0.0
  0
LINE
  5
270
330
1F
100
AcDbEntity
  8
OBRYS
100
AcDbLine
 10
42.8221221013
 20
109.7342671286
 30
0.0
 11
42.8221221013
 21
105.3342671286
 31
0.0
  0
LINE
  5
271
330
1F
100
AcDbEntity
  8
OBRYS
100
AcDbLine
 10
43.4221221013
 20
110.2342671286
 30
0.0
 11
43.3221221013
 21
110.2342671286
 31
0.0
  0
LINE
  5
272
330
1F
100
AcDbEntity
  8
OBRYS
100
AcDbLine
 10
43.9221221013
 20
109.5342671286
 30
0.0
 11
43.9221221013
 21
109.7342671286
 31
0.0
  0
LINE
  5
273
330
1F
100
AcDbEntity
  8
OBRYS
100
AcDbLine
 10
44.6221221013
 20
109.0342671286
 30
0.0
 11
44.4221221013
 21
109.0342671286
 31
0.0
  0
LINE
  5
274
330
1F
100
AcDbEntity
  8
OBRYS
100
AcDbLine
 10
45.1221221013
 20
110.9342671286
 30
0.0
 11
45.1221221013
 21
109.5342671286
 31
0.0
  0
LINE
  5
275
330
1F
100
AcDbEntity
  8
OBRYS
100
AcDbLine
 10
42.1221221013
 20
111.4342671286
 30
0.0
 11
44.6221221013
 21
111.4342671286
 31
0.0
  0
LINE
  5
276
330
1F
100
AcDbEntity
  8
OBRYS
100
AcDbLine
 10
41.6221221013
 20
110.9342671286
 30
0.0
 11
41.6221221013
 21
26.9342671286
 31
0.0
  0
LINE
  5
277
330
1F
100
AcDbEntity
  8
OBRYS
100
AcDbLine
 10
60.9221221013
 20
68.3342671286
 30
0.0
 11
62.4221221013
 21
68.3342671286
 31
0.0
  0
LINE
  5
278
330
1F
100
AcDbEntity
  8
OBRYS
100
AcDbLine
 10
62.4221221013
 20
58.1342671286
 30
0.0
 11
62.4221221013
 21
68.3342671286
 31
0.0
  0
LINE
  5
279
330
1F
100
AcDbEntity
  8
OBRYS
100
AcDbLine
 10
62.4221221013
 20
58.1342671286
 30
0.0
 11
60.9221221013
 21
58.1342671286
 31
0.0
  0
LINE
  5
27A
330
1F
100
AcDbEntity
  8
OBRYS
100
AcDbLine
 10
60.4221221013
 20
57.6342671286
 30
0.0
 11
60.4221221013
 21
57.4342671286
 31
0.0
  0
LINE
  5
27B
330
1F
100
AcDbEntity
  8
OBRYS
100
AcDbLine
 10
60.9221221013
 20
56.9342671286
 30
0.0
 11
62.4221221013
 21
56.9342671286
 31
0.0
  0
LINE
  5
27C
330
1F
100
AcDbEntity
  8
OBRYS
100
AcDbLine
 10
62.4221221013
 20
53.9342671286
 30
0.0
 11
62.4221221013
 21
56.9342671286
 31
0.0
  0
LINE
  5
27D
330
1F
100
AcDbEntity
  8
OBRYS
100
AcDbLine
 10
42.8221221013
 20
53.9342671286
 30
0.0
 11
62.4221221013
 21
53.9342671286
 31
0.0
  0
LINE
  5
27E
330
1F
100
AcDbEntity
  8
OBRYS
100
AcDbLine
 10
42.8221221013
 20
56.9342671286
 30
0.0
 11
42.8221221013
 21
53.9342671286
 31
0.0
  0
LINE
  5
27F
330
1F
100
AcDbEntity
  8
OBRYS
100
AcDbLine
 10
44.3221221013
 20
56.9342671286
 30
0.0
 11
42.8221221013
 21
56.9342671286
 31
0.0
  0
LINE
  5
280
330
1F
100
AcDbEntity
  8
OBRYS
100
AcDbLine
 10
44.8221221013
 20
57.6342671286
 30
0.0
 11
44.8221221013
 21
57.4342671286
 31
0.0
  0
LINE
  5
281
330
1F
100
AcDbEntity
  8
OBRYS
100
AcDbLine
 10
42.8221221013
 20
58.1342671286
 30
0.0
 11
44.3221221013
 21
58.1342671286
 31
0.0
  0
LINE
  5
282
330
1F
100
AcDbEntity
  8
OBRYS
100
AcDbLine
 10
42.8221221013
 20
68.3342671286
 30
0.0
 11
42.8221221013
 21
58.1342671286
 31
0.0
  0
LINE
  5
283
330
1F
100
AcDbEntity
  8
OBRYS
100
AcDbLine
 10
44.3221221013
 20
68.3342671286
 30
0.0
 11
42.8221221013
 21
68.3342671286
 31
0.0
  0
LINE
  5
284
330
1F
100
AcDbEntity
  8
OBRYS
100
AcDbLine
 10
44.8221221013
 20
69.0342671286
 30
0.0
 11
44.8221221013
 21
68.8342671286
 31
0.0
  0
LINE
  5
285
330
1F
100
AcDbEntity
  8
OBRYS
100
AcDbLine
 10
42.8221221013
 20
69.5342671286
 30
0.0
 11
44.3221221013
 21
69.5342671286
 31
0.0
  0
LINE
  5
286
330
1F
100
AcDbEntity
  8
OBRYS
100
AcDbLine
 10
42.8221221013
 20
79.7342671286
 30
0.0
 11
42.8221221013
 21
69.5342671286
 31
0.0
  0
LINE
  5
287
330
1F
100
AcDbEntity
  8
OBRYS
100
AcDbLine
 10
44.3221221013
 20
79.7342671286
 30
0.0
 11
42.8221221013
 21
79.7342671286
 31
0.0
  0
LINE
  5
288
330
1F
100
AcDbEntity
  8
OBRYS
100
AcDbLine
 10
44.8221221013
 20
80.4342671286
 30
0.0
 11
44.8221221013
 21
80.2342671286
 31
0.0
  0
LINE
  5
289
330
1F
100
AcDbEntity
  8
OBRYS
100
AcDbLine
 10
42.8221221013
 20
80.9342671286
 30
0.0
 11
44.3221221013
 21
80.9342671286
 31
0.0
  0
LINE
  5
28A
330
1F
100
AcDbEntity
  8
OBRYS
100
AcDbLine
 10
42.8221221013
 20
83.9342671286
 30
0.0
 11
42.8221221013
 21
80.9342671286
 31
0.0
  0
LINE
  5
28B
330
1F
100
AcDbEntity
  8
OBRYS
100
AcDbLine
 10
62.4221221013
 20
83.9342671286
 30
0.0
 11
42.8221221013
 21
83.9342671286
 31
0.0
  0
LINE
  5
28C
330
1F
100
AcDbEntity
  8
OBRYS
100
AcDbLine
 10
62.4221221013
 20
80.9342671286
 30
0.0
 11
62.4221221013
 21
83.9342671286
 31
0.0
  0
LINE
  5
28D
330
1F
100
AcDbEntity
  8
OBRYS
100
AcDbLine
 10
62.4221221013
 20
80.9342671286
 30
0.0
 11
60.9221221013
 21
80.9342671286
 31
0.0
  0
LINE
  5
28E
330
1F
100
AcDbEntity
  8
OBRYS
100
AcDbLine
 10
60.4221221013
 20
80.4342671286
 30
0.0
 11
60.4221221013
 21
80.2342671286
 31
0.0
  0
LINE
  5
28F
330
1F
100
AcDbEntity
  8
OBRYS
100
AcDbLine
 10
60.9221221013
 20
79.7342671286
 30
0.0
 11
62.4221221013
 21
79.7342671286
 31
0.0
  0
LINE
  5
290
330
1F
100
AcDbEntity
  8
OBRYS
100
AcDbLine
 10
62.4221221013
 20
69.5342671286
 30
0.0
 11
62.4221221013
 21
79.7342671286
 31
0.0
  0
LINE
  5
291
330
1F
100
AcDbEntity
  8
OBRYS
100
AcDbLine
 10
62.4221221013
 20
69.5342671286
 30
0.0
 11
60.9221221013
 21
69.5342671286
 31
0.0
  0
LINE
  5
292
330
1F
100
AcDbEntity
  8
OBRYS
100
AcDbLine
 10
54.7221221013
 20
52.7342671286
 30
0.0
 11
53.2221221013
 21
52.7342671286
 31
0.0
  0
LINE
  5
293
330
1F
100
AcDbEntity
  8
OBRYS
100
AcDbLine
 10
61.4221221013
 20
52.7342671286
 30
0.0
 11
55.9221221013
 21
52.7342671286
 31
0.0
  0
LINE
  5
294
330
1F
100
AcDbEntity
  8
OBRYS
100
AcDbLine
 10
52.0221221013
 20
52.7342671286
 30
0.0
 11
50.5221221013
 21
52.7342671286
 31
0.0
  0
DIMENSION
  5
295
330
1F
100
AcDbEntity
  8
KOTY
100
AcDbDimension
  2
*D11
 10
81.6221221013
 20
33.4342671286
 30
0.0
 11
81.6221221013
 21
69.1505010935
 31
0.0
 70
   160
 71
     2
 42
-1.0
  3
SLDDIMSTYLE0
100
AcDbAlignedDimension
 13
75.1221221013
 23
104.4342671286
 33
0.0
 14
75.1221221013
 24
33.4342671286
 34
0.0
 50
90.0
100
AcDbRotatedDimension
  0
DIMENSION
  5
29F
330
1F
100
AcDbEntity
  8
KOTY
100
AcDbDimension
  2
*D12
 10
60.1221221013
 20
117.4342671287
 30
0.0
 11
52.0726590937
 21
117.4342671287
 31
0.0
 70
   160
 71
     2
 42
-1.0
  3
SLDDIMSTYLE1
100
AcDbAlignedDimension
 13
45.1221221013
 23
110.9342671286
 33
0.0
 14
60.1221221013
 24
110.9342671286
 34
0.0
100
AcDbRotatedDimension
  0
DIMENSION
  5
2AB
330
1F
100
AcDbEntity
  8
KOTY
100
AcDbDimension
  2
*D13
 10
75.6221221013
 20
123.4342671286
 30
0.0
 11
58.6221221013
 21
123.4342671286
 31
0.0
 70
   160
 71
     2
 42
-1.0
  3
SLDDIMSTYLE0
100
AcDbAlignedDimension
 13
41.6221221013
 23
110.9342671286
 33
0.0
 14
75.6221221013
 24
110.9342671286
 34
0.0
100
AcDbRotatedDimension
  0
DIMENSION
  5
2B5
330
1F
100
AcDbEntity
  8
KOTY
100
AcDbDimension
  2
*D14
 10
29.6221221013
 20
26.4342671286
 30
0.0
 11
29.6221221013
 21
68.9342671286
 31
0.0
 70
   160
 71
     2
 42
-1.0
  3
SLDDIMSTYLE0
100
AcDbAlignedDimension
 13
42.1221221013
 23
111.4342671286
 33
0.0
 14
42.1221221013
 24
26.4342671286
 34
0.0
 50
90.0
100
AcDbRotatedDimension
  0
DIMENSION
  5
2BF
330
1F
100
AcDbEntity
  8
KOTY
100
AcDbDimension
  2
*D15
 10
35.6221221013
 20
85.1342671286
 30
0.0
 11
35.6221221013
 21
98.2842671286
 31
0.0
 70
   160
 71
     2
 42
-1.0
  3
SLDDIMSTYLE2
100
AcDbAlignedDimension
 13
42.1221221013
 23
111.4342671286
 33
0.0
 14
43.8221221013
 24
85.1342671286
 34
0.0
 50
90.0
100
AcDbRotatedDimension
  0
DIMENSION
  5
2C9
330
1F
100
AcDbEntity
  8
KOTY
100
AcDbDimension
  2
*D16
 10
35.6221221013
 20
53.9342671286
 30
0.0
 11
35.6221221013
 21
68.9342671286
 31
0.0
 70
   160
 71
     2
 42
-1.0
  3
SLDDIMSTYLE0
100
AcDbAlignedDimension
 13
42.8221221013
 23
83.9342671286
 33
0.0
 14
42.8221221013
 24
53.9342671286
 34
0.0
 50
90.0
100
AcDbRotatedDimension
  0
ENDSEC
  0
SECTION
  2
OBJECTS
  0
DICTIONARY
  5
C
330
0
100
AcDbDictionary
281
     1
  3
ACAD_GROUP
350
D
  3
ACAD_LAYOUT
350
1A
  3
ACAD_MLINESTYLE
350
17
  3
ACAD_PLOTSETTINGS
350
19
  3
ACAD_PLOTSTYLENAME
350
E
  0
DICTIONARY
  5
D
102
{ACAD_REACTORS
330
C
102
}
330
C
100
AcDbDictionary
281
     1
  0
DICTIONARY
  5
1A
102
{ACAD_REACTORS
330
C
102
}
330
C
100
AcDbDictionary
281
     1
  3
Layout1
350
1E
  3
Layout2
350
26
  3
Model
350
22
  0
DICTIONARY
  5
17
102
{ACAD_REACTORS
330
C
102
}
330
C
100
AcDbDictionary
281
     1
  3
Standard
350
18
  0
DICTIONARY
  5
19
102
{ACAD_REACTORS
330
C
102
}
330
C
100
AcDbDictionary
281
     1
  0
ACDBDICTIONARYWDFLT
  5
E
102
{ACAD_REACTORS
330
C
102
}
330
C
100
AcDbDictionary
281
     1
  3
Normal
350
F
100
AcDbDictionaryWithDefault
340
F
  0
LAYOUT
  5
1E
102
{ACAD_REACTORS
330
1A
102
}
330
1A
100
AcDbPlotSettings
  1

  2
none_device
  4

  6

 40
0.0
 41
0.0
 42
0.0
 43
0.0
 44
0.0
 45
0.0
 46
0.0
 47
0.0
 48
0.0
 49
0.0
140
0.0
141
0.0
142
1.0
143
1.0
 70
   688
 72
     0
 73
     0
 74
     5
  7

 75
    16
147
1.0
148
0.0
149
0.0
100
AcDbLayout
  1
Layout1
 70
     1
 71
     1
 10
0.0
 20
0.0
 11
420.0
 21
297.0
 12
0.0
 22
0.0
 32
0.0
 14
1.0000000000E+20
 24
1.0000000000E+20
 34
1.0000000000E+20
 15
-1.0000000000E+20
 25
-1.0000000000E+20
 35
-1.0000000000E+20
146
0.0
 13
0.0
 23
0.0
 33
0.0
 16
1.0
 26
0.0
 36
0.0
 17
0.0
 27
1.0
 37
0.0
 76
     0
330
1B
  0
LAYOUT
  5
26
102
{ACAD_REACTORS
330
1A
102
}
330
1A
100
AcDbPlotSettings
  1

  2
none_device
  4

  6

 40
0.0
 41
0.0
 42
0.0
 43
0.0
 44
0.0
 45
0.0
 46
0.0
 47
0.0
 48
0.0
 49
0.0
140
0.0
141
0.0
142
1.0
143
1.0
 70
   688
 72
     0
 73
     0
 74
     5
  7

 75
    16
147
1.0
148
0.0
149
0.0
100
AcDbLayout
  1
Layout2
 70
     1
 71
     2
 10
0.0
 20
0.0
 11
0.0
 21
0.0
 12
0.0
 22
0.0
 32
0.0
 14
0.0
 24
0.0
 34
0.0
 15
0.0
 25
0.0
 35
0.0
146
0.0
 13
0.0
 23
0.0
 33
0.0
 16
1.0
 26
0.0
 36
0.0
 17
0.0
 27
1.0
 37
0.0
 76
     0
330
23
  0
LAYOUT
  5
22
102
{ACAD_REACTORS
330
1A
102
}
330
1A
100
AcDbPlotSettings
  1

  2
none_device
  4

  6

 40
0.0
 41
0.0
 42
0.0
 43
0.0
 44
0.0
 45
0.0
 46
0.0
 47
0.0
 48
0.0
 49
0.0
140
0.0
141
0.0
142
1.0
143
1.0
 70
  1712
 72
     0
 73
     0
 74
     0
  7

 75
     0
147
1.0
148
0.0
149
0.0
100
AcDbLayout
  1
Model
 70
     1
 71
     0
 10
0.0
 20
0.0
 11
210.0
 21
297.0
 12
0.0
 22
0.0
 32
0.0
 14
0.0
 24
0.0
 34
0.0
 15
210.0
 25
297.0
 35
0.0
146
0.0
 13
0.0
 23
0.0
 33
0.0
 16
1.0
 26
0.0
 36
0.0
 17
0.0
 27
1.0
 37
0.0
 76
     0
330
1F
331
29
  0
MLINESTYLE
  5
18
102
{ACAD_REACTORS
330
17
102
}
330
17
100
AcDbMlineStyle
  2
Standard
 70
     0
  3

 62
   256
 51
90.0
 52
90.0
 71
     2
 49
0.5
 62
   256
  6
BYLAYER
 49
-0.5
 62
   256
  6
BYLAYER
  0
ACDBPLACEHOLDER
  5
F
102
{ACAD_REACTORS
330
E
102
}
330
E
  0
ENDSEC
  0
EOF
