  0
SECTION
  2
HEADER
  9
$ACADVER
  1
AC1015
  9
$ACADMAINTVER
 70
     6
  9
$DWGCODEPAGE
  3
ANSI_1250
  9
$INSBASE
 10
0.0
 20
0.0
 30
0.0
  9
$EXTMIN
 10
0.0
 20
0.0
 30
0.0
  9
$EXTMAX
 10
210.0
 20
297.0
 30
0.0
  9
$LIMMIN
 10
0.0
 20
0.0
  9
$LIMMAX
 10
210.0
 20
297.0
  9
$ORTHOMODE
 70
     0
  9
$REGENMODE
 70
     1
  9
$FILLMODE
 70
     1
  9
$QTEXTMODE
 70
     0
  9
$MIRRTEXT
 70
     1
  9
$LTSCALE
 40
1.0
  9
$ATTMODE
 70
     1
  9
$TEXTSIZE
 40
2.5
  9
$TRACEWID
 40
1.0
  9
$TEXTSTYLE
  7
STANDARD
  9
$CLAYER
  8
0
  9
$CELTYPE
  6
ByLayer
  9
$CECOLOR
 62
   256
  9
$CELTSCALE
 40
1.0
  9
$DISPSILH
 70
     0
  9
$DIMSCALE
 40
1.0
  9
$DIMASZ
 40
2.5
  9
$DIMEXO
 40
0.0
  9
$DIMDLI
 40
3.75
  9
$DIMRND
 40
0.0
  9
$DIMDLE
 40
0.0
  9
$DIMEXE
 40
1.0
  9
$DIMTP
 40
0.0
  9
$DIMTM
 40
0.0
  9
$DIMTXT
 40
2.5
  9
$DIMCEN
 40
2.5
  9
$DIMTSZ
 40
0.0
  9
$DIMTOL
 70
     0
  9
$DIMLIM
 70
     0
  9
$DIMTIH
 70
     1
  9
$DIMTOH
 70
     1
  9
$DIMSE1
 70
     0
  9
$DIMSE2
 70
     0
  9
$DIMTAD
 70
     1
  9
$DIMZIN
 70
     1
  9
$DIMBLK
  1

  9
$DIMASO
 70
     1
  9
$DIMSHO
 70
     1
  9
$DIMPOST
  1

  9
$DIMAPOST
  1

  9
$DIMALT
 70
     0
  9
$DIMALTD
 70
     3
  9
$DIMALTF
 40
0.0393700787
  9
$DIMLFAC
 40
1.0
  9
$DIMTOFL
 70
     1
  9
$DIMTVP
 40
0.0
  9
$DIMTIX
 70
     0
  9
$DIMSOXD
 70
     0
  9
$DIMSAH
 70
     0
  9
$DIMBLK1
  1

  9
$DIMBLK2
  1

  9
$DIMSTYLE
  2
ISO-25
  9
$DIMCLRD
 70
     0
  9
$DIMCLRE
 70
     0
  9
$DIMCLRT
 70
     0
  9
$DIMTFAC
 40
1.0
  9
$DIMGAP
 40
1.524
  9
$DIMJUST
 70
     0
  9
$DIMSD1
 70
     0
  9
$DIMSD2
 70
     0
  9
$DIMTOLJ
 70
     0
  9
$DIMTZIN
 70
     1
  9
$DIMALTZ
 70
     0
  9
$DIMALTTZ
 70
     0
  9
$DIMUPT
 70
     0
  9
$DIMDEC
 70
     2
  9
$DIMTDEC
 70
     2
  9
$DIMALTU
 70
     2
  9
$DIMALTTD
 70
     3
  9
$DIMTXSTY
  7
STANDARD
  9
$DIMAUNIT
 70
     0
  9
$DIMADEC
 70
     2
  9
$DIMALTRND
 40
0.0
  9
$DIMAZIN
 70
     0
  9
$DIMDSEP
 70
    44
  9
$DIMATFIT
 70
     3
  9
$DIMFRAC
 70
     0
  9
$DIMLDRBLK
  1

  9
$DIMLUNIT
 70
     2
  9
$DIMLWD
 70
    -2
  9
$DIMLWE
 70
    -2
  9
$DIMTMOVE
 70
     0
  9
$LUNITS
 70
     2
  9
$LUPREC
 70
     0
  9
$SKETCHINC
 40
1.0
  9
$FILLETRAD
 40
10.0
  9
$AUNITS
 70
     0
  9
$AUPREC
 70
     2
  9
$MENU
  1
.
  9
$ELEVATION
 40
0.0
  9
$PELEVATION
 40
0.0
  9
$THICKNESS
 40
0.0
  9
$LIMCHECK
 70
     0
  9
$CHAMFERA
 40
10.0
  9
$CHAMFERB
 40
10.0
  9
$CHAMFERC
 40
20.0
  9
$CHAMFERD
 40
0.0
  9
$SKPOLY
 70
     0
  9
$TDCREATE
 40
2455574.44012404
  9
$TDUCREATE
 40
2455574.398457373
  9
$TDUPDATE
 40
2455574.440124051
  9
$TDUUPDATE
 40
2455574.398457384
  9
$TDINDWG
 40
0.0000000116
  9
$TDUSRTIMER
 40
0.0000000116
  9
$USRTIMER
 70
     1
  9
$ANGBASE
 50
0.0
  9
$ANGDIR
 70
     0
  9
$PDMODE
 70
     0
  9
$PDSIZE
 40
-1.0
  9
$PLINEWID
 40
0.0
  9
$SPLFRAME
 70
     0
  9
$SPLINETYPE
 70
     6
  9
$SPLINESEGS
 70
     8
  9
$HANDSEED
  5
142
  9
$SURFTAB1
 70
     6
  9
$SURFTAB2
 70
     6
  9
$SURFTYPE
 70
     6
  9
$SURFU
 70
     6
  9
$SURFV
 70
     6
  9
$UCSBASE
  2

  9
$UCSNAME
  2

  9
$UCSORG
 10
0.0
 20
0.0
 30
0.0
  9
$UCSXDIR
 10
1.0
 20
0.0
 30
0.0
  9
$UCSYDIR
 10
0.0
 20
1.0
 30
0.0
  9
$UCSORTHOREF
  2

  9
$UCSORTHOVIEW
 70
     0
  9
$UCSORGTOP
 10
0.0
 20
0.0
 30
0.0
  9
$UCSORGBOTTOM
 10
0.0
 20
0.0
 30
0.0
  9
$UCSORGLEFT
 10
0.0
 20
0.0
 30
0.0
  9
$UCSORGRIGHT
 10
0.0
 20
0.0
 30
0.0
  9
$UCSORGFRONT
 10
0.0
 20
0.0
 30
0.0
  9
$UCSORGBACK
 10
0.0
 20
0.0
 30
0.0
  9
$PUCSBASE
  2

  9
$PUCSNAME
  2

  9
$PUCSORG
 10
0.0
 20
0.0
 30
0.0
  9
$PUCSXDIR
 10
1.0
 20
0.0
 30
0.0
  9
$PUCSYDIR
 10
0.0
 20
1.0
 30
0.0
  9
$PUCSORTHOREF
  2

  9
$PUCSORTHOVIEW
 70
     0
  9
$PUCSORGTOP
 10
0.0
 20
0.0
 30
0.0
  9
$PUCSORGBOTTOM
 10
0.0
 20
0.0
 30
0.0
  9
$PUCSORGLEFT
 10
0.0
 20
0.0
 30
0.0
  9
$PUCSORGRIGHT
 10
0.0
 20
0.0
 30
0.0
  9
$PUCSORGFRONT
 10
0.0
 20
0.0
 30
0.0
  9
$PUCSORGBACK
 10
0.0
 20
0.0
 30
0.0
  9
$USERI1
 70
     0
  9
$USERI2
 70
     0
  9
$USERI3
 70
     0
  9
$USERI4
 70
     0
  9
$USERI5
 70
     0
  9
$USERR1
 40
0.0
  9
$USERR2
 40
0.0
  9
$USERR3
 40
0.0
  9
$USERR4
 40
0.0
  9
$USERR5
 40
0.0
  9
$WORLDVIEW
 70
     1
  9
$SHADEDGE
 70
     3
  9
$SHADEDIF
 70
    70
  9
$TILEMODE
 70
     1
  9
$MAXACTVP
 70
    64
  9
$PINSBASE
 10
0.0
 20
0.0
 30
0.0
  9
$PLIMCHECK
 70
     0
  9
$PEXTMIN
 10
1.0000000000E+20
 20
1.0000000000E+20
 30
1.0000000000E+20
  9
$PEXTMAX
 10
-1.0000000000E+20
 20
-1.0000000000E+20
 30
-1.0000000000E+20
  9
$PLIMMIN
 10
0.0
 20
0.0
  9
$PLIMMAX
 10
420.0
 20
297.0
  9
$UNITMODE
 70
     0
  9
$VISRETAIN
 70
     1
  9
$PLINEGEN
 70
     0
  9
$PSLTSCALE
 70
     1
  9
$TREEDEPTH
 70
  3020
  9
$CMLSTYLE
  2
Standard
  9
$CMLJUST
 70
     0
  9
$CMLSCALE
 40
20.0
  9
$PROXYGRAPHICS
 70
     1
  9
$MEASUREMENT
 70
     1
  9
$CELWEIGHT
370
    -1
  9
$ENDCAPS
280
     0
  9
$JOINSTYLE
280
     0
  9
$LWDISPLAY
290
     1
  9
$INSUNITS
 70
     4
  9
$HYPERLINKBASE
  1

  9
$STYLESHEET
  1

  9
$XEDIT
290
     1
  9
$CEPSNTYPE
380
     0
  9
$PSTYLEMODE
290
     1
  9
$FINGERPRINTGUID
  2
{B1DAC1F0-427F-4197-83FA-BEB8C625E7E1}
  9
$VERSIONGUID
  2
{FAEB1C32-E019-11D5-929B-00C0DF256EC4}
  9
$EXTNAMES
290
     1
  9
$PSVPSCALE
 40
0.0
  9
$OLESTARTUP
290
     0
  0
ENDSEC
  0
SECTION
  2
CLASSES
  0
CLASS
  1
ACDBDICTIONARYWDFLT
  2
AcDbDictionaryWithDefault
  3
ObjectDBX Classes
 90
        0
280
     0
281
     0
  0
CLASS
  1
VISUALSTYLE
  2
AcDbVisualStyle
  3
ObjectDBX Classes
 90
     4095
280
     0
281
     0
  0
CLASS
  1
MATERIAL
  2
AcDbMaterial
  3
ObjectDBX Classes
 90
     1153
280
     0
281
     0
  0
CLASS
  1
ACDBPLACEHOLDER
  2
AcDbPlaceHolder
  3
ObjectDBX Classes
 90
        0
280
     0
281
     0
  0
CLASS
  1
LAYOUT
  2
AcDbLayout
  3
ObjectDBX Classes
 90
        0
280
     0
281
     0
  0
ENDSEC
  0
SECTION
  2
TABLES
  0
TABLE
  2
VPORT
  5
8
330
0
100
AcDbSymbolTable
 70
     1
  0
VPORT
  5
29
330
8
100
AcDbSymbolTableRecord
100
AcDbViewportTableRecord
  2
*Active
 70
     0
 10
0.0
 20
0.0
 11
1.0
 21
1.0
 12
105.0
 22
148.5
 13
0.0
 23
0.0
 14
10.0
 24
10.0
 15
10.0
 25
10.0
 16
0.0
 26
0.0
 36
1.0
 17
0.0
 27
0.0
 37
0.0
 40
297.0
 41
0.7070707071
 42
50.0
 43
0.0
 44
0.0
 50
0.0
 51
0.0
 71
     0
 72
  2000
 73
     1
 74
     3
 75
     0
 76
     0
 77
     0
 78
     0
281
     0
 65
     1
110
0.0
120
0.0
130
0.0
111
1.0
121
0.0
131
0.0
112
0.0
122
1.0
132
0.0
 79
     0
146
0.0
  0
ENDTAB
  0
TABLE
  2
LTYPE
  5
5
330
0
100
AcDbSymbolTable
 70
     6
  0
LTYPE
  5
14
330
5
100
AcDbSymbolTableRecord
100
AcDbLinetypeTableRecord
  2
ByBlock
 70
     0
  3

 72
    65
 73
     0
 40
0.0
  0
LTYPE
  5
15
330
5
100
AcDbSymbolTableRecord
100
AcDbLinetypeTableRecord
  2
ByLayer
 70
     0
  3

 72
    65
 73
     0
 40
0.0
  0
LTYPE
  5
16
330
5
100
AcDbSymbolTableRecord
100
AcDbLinetypeTableRecord
  2
Continuous
 70
     0
  3
Solid line
 72
    65
 73
     0
 40
0.0
  0
LTYPE
  5
3F
330
5
100
AcDbSymbolTableRecord
100
AcDbLinetypeTableRecord
  2
HIDDEN
 70
     0
  3
Hidden __ __ __ __ __ __ __ __ __ __ __ __ __ __
 72
    65
 73
     2
 40
1.905
 49
1.27
 74
     0
 49
-0.635
 74
     0
  0
LTYPE
  5
40
330
5
100
AcDbSymbolTableRecord
100
AcDbLinetypeTableRecord
  2
PHANTOM
 70
     0
  3
Phantom ______  __  __  ______  __  __  ______
 72
    65
 73
     6
 40
12.7
 49
6.35
 74
     0
 49
-1.27
 74
     0
 49
1.27
 74
     0
 49
-1.27
 74
     0
 49
1.27
 74
     0
 49
-1.27
 74
     0
  0
LTYPE
  5
41
330
5
100
AcDbSymbolTableRecord
100
AcDbLinetypeTableRecord
  2
CENTER
 70
     0
  3
Center ____ _ ____ _ ____ _ ____ _ ____ _ ____
 72
    65
 73
     4
 40
10.16
 49
6.35
 74
     0
 49
-1.27
 74
     0
 49
1.27
 74
     0
 49
-1.27
 74
     0
  0
LTYPE
  5
42
330
5
100
AcDbSymbolTableRecord
100
AcDbLinetypeTableRecord
  2
CENTERX2
 70
     0
  3
Center (2x) ________  __  ________  __  _____
 72
    65
 73
     4
 40
20.32
 49
12.7
 74
     0
 49
-2.54
 74
     0
 49
2.54
 74
     0
 49
-2.54
 74
     0
  0
LTYPE
  5
43
330
5
100
AcDbSymbolTableRecord
100
AcDbLinetypeTableRecord
  2
DOT2
 70
     0
  3
Dot (.5x) ........................................
 72
    65
 73
     2
 40
0.635
 49
0.0
 74
     0
 49
-0.635
 74
     0
  0
ENDTAB
  0
TABLE
  2
LAYER
  5
2
330
0
100
AcDbSymbolTable
 70
    26
  0
LAYER
  5
10
330
2
100
AcDbSymbolTableRecord
100
AcDbLayerTableRecord
  2
0
 70
     0
 62
     7
  6
Continuous
370
    -3
390
F
  0
LAYER
  5
44
330
2
100
AcDbSymbolTableRecord
100
AcDbLayerTableRecord
  2
SLD-0
 70
     0
 62
     1
  6
HIDDEN
370
    -3
390
F
  0
LAYER
  5
45
330
2
100
AcDbSymbolTableRecord
100
AcDbLayerTableRecord
  2
POČÁTEK
 70
     0
 62
    34
  6
Continuous
370
    -3
390
F
  0
LAYER
  5
46
330
2
100
AcDbSymbolTableRecord
100
AcDbLayerTableRecord
  2
OBRYS
 70
     0
 62
   156
  6
Continuous
370
    15
390
F
  0
LAYER
  5
47
330
2
100
AcDbSymbolTableRecord
100
AcDbLayerTableRecord
  2
SRAFY
 70
     0
 62
     2
  6
Continuous
370
    -1
390
F
  0
LAYER
  5
48
330
2
100
AcDbSymbolTableRecord
100
AcDbLayerTableRecord
  2
KOTY
 70
     0
 62
    82
  6
Continuous
370
    -3
390
F
  0
LAYER
  5
49
330
2
100
AcDbSymbolTableRecord
100
AcDbLayerTableRecord
  2
OSY
 70
     0
 62
     1
  6
CENTERX2
370
    -3
390
F
  0
LAYER
  5
4A
330
2
100
AcDbSymbolTableRecord
100
AcDbLayerTableRecord
  2
REZY
 70
     0
 62
     1
  6
CENTERX2
370
    -3
390
F
  0
LAYER
  5
4B
330
2
100
AcDbSymbolTableRecord
100
AcDbLayerTableRecord
  2
TENKA
 70
     0
 62
   131
  6
Continuous
370
    -1
390
F
  0
LAYER
  5
4C
330
2
100
AcDbSymbolTableRecord
100
AcDbLayerTableRecord
  2
SKRYTE
 70
     0
 62
     4
  6
HIDDEN
370
    -3
390
F
  0
LAYER
  5
4D
330
2
100
AcDbSymbolTableRecord
100
AcDbLayerTableRecord
  2
TEXT
 70
     0
 62
    40
  6
Continuous
370
    -3
390
F
  0
LAYER
  5
4E
330
2
100
AcDbSymbolTableRecord
100
AcDbLayerTableRecord
  2
STŘEDOVÉ
 70
     0
 62
     1
  6
CENTERX2
370
    -3
390
F
  0
LAYER
  5
4F
330
2
100
AcDbSymbolTableRecord
100
AcDbLayerTableRecord
  2
OPRACOVÁNÍ
 70
     0
 62
   212
  6
Continuous
370
    -3
390
F
  0
LAYER
  5
50
330
2
100
AcDbSymbolTableRecord
100
AcDbLayerTableRecord
  2
TABULKA
 70
     0
 62
    41
  6
Continuous
370
    -1
390
F
  0
LAYER
  5
51
330
2
100
AcDbSymbolTableRecord
100
AcDbLayerTableRecord
  2
GEOMETRICKÉ
 70
     0
 62
   212
  6
Continuous
370
    -3
390
F
  0
LAYER
  5
52
330
2
100
AcDbSymbolTableRecord
100
AcDbLayerTableRecord
  2
ČÁRY
 70
     0
 62
     2
  6
Continuous
370
    -3
390
F
  0
LAYER
  5
53
330
2
100
AcDbSymbolTableRecord
100
AcDbLayerTableRecord
  2
POPIS
 70
     0
 62
     3
  6
Continuous
370
    -1
390
F
  0
LAYER
  5
54
330
2
100
AcDbSymbolTableRecord
100
AcDbLayerTableRecord
  2
ZÁKLADNA
 70
     0
 62
   212
  6
Continuous
370
    -1
390
F
  0
LAYER
  5
55
330
2
100
AcDbSymbolTableRecord
100
AcDbLayerTableRecord
  2
STŘEDY
 70
     0
 62
     1
  6
CENTERX2
370
    -3
390
F
  0
LAYER
  5
56
330
2
100
AcDbSymbolTableRecord
100
AcDbLayerTableRecord
  2
KOLÍK
 70
     0
 62
     9
  6
Continuous
370
    -3
390
F
  0
LAYER
  5
57
330
2
100
AcDbSymbolTableRecord
100
AcDbLayerTableRecord
  2
PŘERUŠENÍ
 70
     0
 62
     4
  6
HIDDEN
370
    -3
390
F
  0
LAYER
  5
58
330
2
100
AcDbSymbolTableRecord
100
AcDbLayerTableRecord
  2
DETAIL
 70
     0
 62
     6
  6
Continuous
370
    -3
390
F
  0
LAYER
  5
59
330
2
100
AcDbSymbolTableRecord
100
AcDbLayerTableRecord
  2
ZÁVIT
 70
     0
 62
     2
  6
Continuous
370
    -3
390
F
  0
LAYER
  5
5A
330
2
100
AcDbSymbolTableRecord
100
AcDbLayerTableRecord
  2
HRANICE
 70
     0
 62
     6
  6
Continuous
370
    -1
390
F
  0
LAYER
  5
5B
330
2
100
AcDbSymbolTableRecord
100
AcDbLayerTableRecord
  2
LOMENÉ
 70
     0
 62
     6
  6
Continuous
370
    -1
390
F
  0
LAYER
  5
5C
330
2
100
AcDbSymbolTableRecord
100
AcDbLayerTableRecord
  2
TEČNÉ
 70
     0
 62
     6
  6
Continuous
370
    -3
390
F
  0
ENDTAB
  0
TABLE
  2
STYLE
  5
3
330
0
100
AcDbSymbolTable
 70
     2
  0
STYLE
  5
11
330
3
100
AcDbSymbolTableRecord
100
AcDbTextStyleTableRecord
  2
STANDARD
 70
     0
 40
0.0
 41
1.0
 50
0.0
 71
     0
 42
2.5
  3
GOTHIC.TTF
  4

1001
ACAD
1000
CENTURY GOTHIC
1071
       34
  0
STYLE
  5
9A
330
3
100
AcDbSymbolTableRecord
100
AcDbTextStyleTableRecord
  2
SLDTEXTSTYLE0
 70
     0
 40
0.0
 41
0.913
 50
0.0
 71
     0
 42
0.2
  3
GOTHIC.TTF
  4

1001
ACAD
1000
Century Gothic
1071
      290
  0
ENDTAB
  0
TABLE
  2
VIEW
  5
6
330
0
100
AcDbSymbolTable
 70
     0
  0
ENDTAB
  0
TABLE
  2
UCS
  5
7
330
0
100
AcDbSymbolTable
 70
     0
  0
ENDTAB
  0
TABLE
  2
APPID
  5
9
330
0
100
AcDbSymbolTable
 70
     1
  0
APPID
  5
12
330
9
100
AcDbSymbolTableRecord
100
AcDbRegAppTableRecord
  2
ACAD
 70
     0
  0
ENDTAB
  0
TABLE
  2
DIMSTYLE
  5
A
330
0
100
AcDbSymbolTable
 70
     5
100
AcDbDimStyleTable
  0
DIMSTYLE
105
27
330
A
100
AcDbSymbolTableRecord
100
AcDbDimStyleTableRecord
  2
ISO-25
 70
     0
 41
2.5
 42
0.625
 43
3.75
 44
1.25
 73
     0
 74
     0
 77
     1
 78
     8
140
2.5
141
2.5
143
0.0393700787
147
0.625
171
     3
172
     1
178
     0
271
     2
272
     2
274
     3
278
    44
283
     0
284
     8
340
11
  0
DIMSTYLE
105
9B
102
{ACAD_REACTORS
330
99
330
117
102
}
330
A
100
AcDbSymbolTableRecord
100
AcDbDimStyleTableRecord
  2
SLDDIMSTYLE0
 70
     0
 41
2.5
 44
0.0
 45
0.000000001
 73
     0
 74
     0
 77
     1
 78
    12
 79
     3
140
2.5
147
0.625
172
     1
173
     1
178
     0
271
     0
272
     2
276
     2
284
    12
289
     0
340
9A
  0
DIMSTYLE
105
A8
102
{ACAD_REACTORS
330
A7
330
123
102
}
330
A
100
AcDbSymbolTableRecord
100
AcDbDimStyleTableRecord
  2
SLDDIMSTYLE1
 70
     0
 41
2.5
 44
0.0
 45
0.000000001
 73
     0
 74
     0
 77
     1
 78
    12
 79
     3
140
2.5
147
0.625
173
     1
178
     0
271
     1
272
     2
276
     2
284
    12
340
9A
  0
DIMSTYLE
105
B3
102
{ACAD_REACTORS
330
B2
102
}
330
A
100
AcDbSymbolTableRecord
100
AcDbDimStyleTableRecord
  2
SLDDIMSTYLE2
 70
     0
 41
2.5
 44
0.0
 45
0.000000001
 73
     0
 74
     0
 77
     1
 78
    12
 79
     3
140
2.5
141
0.0
147
0.625
172
     1
173
     1
178
     0
271
     0
272
     2
276
     2
284
    12
340
9A
  0
DIMSTYLE
105
C0
102
{ACAD_REACTORS
330
BF
330
12E
330
138
102
}
330
A
100
AcDbSymbolTableRecord
100
AcDbDimStyleTableRecord
  2
SLDDIMSTYLE3
 70
     0
 41
2.5
 44
0.0
 45
0.000000001
 73
     0
 74
     0
 77
     1
 78
    12
 79
     3
140
2.5
147
0.625
173
     1
178
     0
271
     0
272
     2
276
     2
284
    12
340
9A
  0
ENDTAB
  0
TABLE
  2
BLOCK_RECORD
  5
1
330
0
100
AcDbSymbolTable
 70
     9
  0
BLOCK_RECORD
  5
1F
330
1
100
AcDbSymbolTableRecord
100
AcDbBlockTableRecord
  2
*Model_Space
340
22
  0
BLOCK_RECORD
  5
1B
330
1
100
AcDbSymbolTableRecord
100
AcDbBlockTableRecord
  2
*Paper_Space
340
1E
  0
BLOCK_RECORD
  5
23
330
1
100
AcDbSymbolTableRecord
100
AcDbBlockTableRecord
  2
*Paper_Space0
340
26
  0
BLOCK_RECORD
  5
9C
330
1
100
AcDbSymbolTableRecord
100
AcDbBlockTableRecord
  2
*D1
340
0
  0
BLOCK_RECORD
  5
A9
330
1
100
AcDbSymbolTableRecord
100
AcDbBlockTableRecord
  2
*D2
340
0
  0
BLOCK_RECORD
  5
B4
330
1
100
AcDbSymbolTableRecord
100
AcDbBlockTableRecord
  2
*D3
340
0
  0
BLOCK_RECORD
  5
C1
330
1
100
AcDbSymbolTableRecord
100
AcDbBlockTableRecord
  2
*D4
340
0
  0
BLOCK_RECORD
  5
118
330
1
100
AcDbSymbolTableRecord
100
AcDbBlockTableRecord
  2
*D5
340
0
  0
BLOCK_RECORD
  5
124
330
1
100
AcDbSymbolTableRecord
100
AcDbBlockTableRecord
  2
*D6
340
0
  0
BLOCK_RECORD
  5
12F
330
1
100
AcDbSymbolTableRecord
100
AcDbBlockTableRecord
  2
*D7
340
0
  0
BLOCK_RECORD
  5
139
330
1
100
AcDbSymbolTableRecord
100
AcDbBlockTableRecord
  2
*D8
340
0
  0
ENDTAB
  0
ENDSEC
  0
SECTION
  2
BLOCKS
  0
BLOCK
  5
20
330
1F
100
AcDbEntity
  8
0
100
AcDbBlockBegin
  2
*Model_Space
 70
     0
 10
0.0
 20
0.0
 30
0.0
  3
*Model_Space
  1

  0
ENDBLK
  5
21
330
1F
100
AcDbEntity
  8
0
100
AcDbBlockEnd
  0
BLOCK
  5
1C
330
1B
100
AcDbEntity
 67
     1
  8
0
100
AcDbBlockBegin
  2
*Paper_Space
 70
     0
 10
0.0
 20
0.0
 30
0.0
  3
*Paper_Space
  1

  0
ENDBLK
  5
1D
330
1B
100
AcDbEntity
 67
     1
  8
0
100
AcDbBlockEnd
  0
BLOCK
  5
24
330
23
100
AcDbEntity
  8
0
100
AcDbBlockBegin
  2
*Paper_Space0
 70
     0
 10
0.0
 20
0.0
 30
0.0
  3
*Paper_Space0
  1

  0
ENDBLK
  5
25
330
23
100
AcDbEntity
  8
0
100
AcDbBlockEnd
  0
BLOCK
  5
9D
330
9C
100
AcDbEntity
  8
0
100
AcDbBlockBegin
  2
*D1
 70
     1
 10
0.0
 20
0.0
 30
0.0
  3
*D1
  1

  0
SOLID
  5
9F
330
9C
100
AcDbEntity
  8
KOTY
100
AcDbTrace
 10
103.3615595364
 20
134.7923046492
 30
0.0
 11
100.8615595364
 21
135.1769200338
 31
0.0
 12
100.8615595364
 22
134.4076892645
 32
0.0
 13
100.8615595364
 23
134.4076892645
 33
0.0
  0
SOLID
  5
A0
330
9C
100
AcDbEntity
  8
KOTY
100
AcDbTrace
 10
108.3615595364
 20
134.7923046492
 30
0.0
 11
110.8615595364
 21
134.4076892645
 31
0.0
 12
110.8615595364
 22
135.1769200338
 32
0.0
 13
110.8615595364
 23
135.1769200338
 33
0.0
  0
LINE
  5
A1
330
9C
100
AcDbEntity
  8
KOTY
100
AcDbLine
 10
103.3615595364
 20
142.4831812434
 30
0.0
 11
103.3615595364
 21
133.7923046492
 31
0.0
  0
LINE
  5
A2
330
9C
100
AcDbEntity
  8
KOTY
100
AcDbLine
 10
108.3615595364
 20
142.4831812434
 30
0.0
 11
108.3615595364
 21
133.7923046492
 31
0.0
  0
LINE
  5
A3
330
9C
100
AcDbEntity
  8
KOTY
100
AcDbLine
 10
103.3615595364
 20
134.7923046492
 30
0.0
 11
98.5538672287
 21
134.7923046492
 31
0.0
  0
LINE
  5
A4
330
9C
100
AcDbEntity
  8
KOTY
100
AcDbLine
 10
103.3615595364
 20
134.7923046492
 30
0.0
 11
108.3615595364
 21
134.7923046492
 31
0.0
  0
LINE
  5
A5
330
9C
100
AcDbEntity
  8
KOTY
100
AcDbLine
 10
108.3615595364
 20
134.7923046492
 30
0.0
 11
124.7084324272
 21
134.7923046492
 31
0.0
  0
MTEXT
  5
A6
330
9C
100
AcDbEntity
  8
KOTY
100
AcDbMText
 10
121.2737153554
 20
137.9856639659
 30
0.0
 40
2.5
 41
0.0
 71
     1
 72
     1
  1
5
  7
SLDTEXTSTYLE0
 73
     1
 44
1.0
  0
ENDBLK
  5
9E
330
9C
100
AcDbEntity
  8
0
100
AcDbBlockEnd
  0
BLOCK
  5
AA
330
A9
100
AcDbEntity
  8
0
100
AcDbBlockBegin
  2
*D2
 70
     1
 10
0.0
 20
0.0
 30
0.0
  3
*D2
  1

  0
SOLID
  5
AC
330
A9
100
AcDbEntity
  8
KOTY
100
AcDbTrace
 10
83.8615595364
 20
142.4831812434
 30
0.0
 11
84.246174921
 21
144.9831812434
 31
0.0
 12
83.4769441517
 22
144.9831812434
 32
0.0
 13
83.4769441517
 23
144.9831812434
 33
0.0
  0
SOLID
  5
AD
330
A9
100
AcDbEntity
  8
KOTY
100
AcDbTrace
 10
83.8615595364
 20
163.9821812434
 30
0.0
 11
83.4769441517
 21
161.4821812434
 31
0.0
 12
84.246174921
 22
161.4821812434
 32
0.0
 13
84.246174921
 23
161.4821812434
 33
0.0
  0
LINE
  5
AE
330
A9
100
AcDbEntity
  8
KOTY
100
AcDbLine
 10
105.8615595364
 20
142.4831812434
 30
0.0
 11
82.8615595364
 21
142.4831812434
 31
0.0
  0
LINE
  5
AF
330
A9
100
AcDbEntity
  8
KOTY
100
AcDbLine
 10
105.8615595364
 20
163.9821812434
 30
0.0
 11
82.8615595364
 21
163.9821812434
 31
0.0
  0
LINE
  5
B0
330
A9
100
AcDbEntity
  8
KOTY
100
AcDbLine
 10
83.8615595364
 20
142.4831812434
 30
0.0
 11
83.8615595364
 21
163.9821812434
 31
0.0
  0
MTEXT
  5
B1
330
A9
100
AcDbEntity
  8
KOTY
100
AcDbMText
 10
80.6682002196
 20
150.5606973681
 30
0.0
 40
2.5
 41
0.0
 71
     1
 72
     1
  1
21,5
  7
SLDTEXTSTYLE0
 11
-2.603302919143008E-15
 21
1.0
 31
0.0
 73
     1
 44
1.0
  0
ENDBLK
  5
AB
330
A9
100
AcDbEntity
  8
0
100
AcDbBlockEnd
  0
BLOCK
  5
B5
330
B4
100
AcDbEntity
  8
0
100
AcDbBlockBegin
  2
*D3
 70
     1
 10
0.0
 20
0.0
 30
0.0
  3
*D3
  1

  0
ARC
  5
B7
330
B4
100
AcDbEntity
  8
KOTY
100
AcDbCircle
 10
105.8615595364
 20
163.9821812434
 30
0.0
 40
6.001000000000024
100
AcDbArc
 50
57.775066882
 51
216.4607739245
  0
SOLID
  5
B8
330
B4
100
AcDbEntity
  8
KOTY
100
AcDbTrace
 10
100.5146293847
 20
161.2577842545
 30
0.0
 11
98.1125013436
 21
160.4655028221
 31
0.0
 12
98.4617248049
 22
159.7801131881
 32
0.0
 13
98.4617248049
 23
159.7801131881
 33
0.0
  0
SOLID
  5
B9
330
B4
100
AcDbEntity
  8
KOTY
100
AcDbTrace
 10
111.208489688
 20
166.7065782324
 30
0.0
 11
113.6106177292
 21
167.4988596647
 31
0.0
 12
113.2613942678
 22
168.1842492987
 32
0.0
 13
113.2613942678
 23
168.1842492987
 33
0.0
  0
LINE
  5
BA
330
B4
100
AcDbEntity
  8
KOTY
100
AcDbLine
 10
111.208489688
 20
166.7065782324
 30
0.0
 11
126.8419683731
 21
174.6722334865
 31
0.0
  0
LINE
  5
BB
330
B4
100
AcDbEntity
  8
KOTY
100
AcDbLine
 10
100.5146293847
 20
161.2577842545
 30
0.0
 11
96.2309441723
 21
159.0751376211
 31
0.0
  0
LINE
  5
BC
330
B4
100
AcDbEntity
  8
KOTY
100
AcDbLine
 10
111.208489688
 20
166.7065782324
 30
0.0
 11
100.5146293847
 21
161.2577842545
 31
0.0
  0
MTEXT
  5
BD
330
B4
100
AcDbEntity
  8
KOTY
100
AcDbMText
 10
117.3331398789
 20
173.3983260796
 30
0.0
 40
2.5
 41
0.0
 71
     1
 72
     1
  1
%%c
  7
SLDTEXTSTYLE0
 11
0.8910065241883683
 21
0.4539904997395457
 31
0.0
 73
     1
 44
1.0
  0
MTEXT
  5
BE
330
B4
100
AcDbEntity
  8
KOTY
100
AcDbMText
 10
120.6911973978
 20
175.1093415851
 30
0.0
 40
2.5
 41
0.0
 71
     1
 72
     1
  1
12
  7
SLDTEXTSTYLE0
 11
0.8910065241883683
 21
0.4539904997395457
 31
0.0
 73
     1
 44
1.0
  0
ENDBLK
  5
B6
330
B4
100
AcDbEntity
  8
0
100
AcDbBlockEnd
  0
BLOCK
  5
C2
330
C1
100
AcDbEntity
  8
0
100
AcDbBlockBegin
  2
*D4
 70
     1
 10
0.0
 20
0.0
 30
0.0
  3
*D4
  1

  0
SOLID
  5
C4
330
C1
100
AcDbEntity
  8
KOTY
100
AcDbTrace
 10
105.8615595364
 20
151.5490346335
 30
0.0
 11
108.3615595364
 21
151.1644192489
 31
0.0
 12
108.3615595364
 22
151.9336500181
 32
0.0
 13
108.3615595364
 23
151.9336500181
 33
0.0
  0
SOLID
  5
C5
330
C1
100
AcDbEntity
  8
KOTY
100
AcDbTrace
 10
114.8615595364
 20
151.5490346335
 30
0.0
 11
112.3615595364
 21
151.9336500181
 31
0.0
 12
112.3615595364
 22
151.1644192489
 32
0.0
 13
112.3615595364
 23
151.1644192489
 33
0.0
  0
LINE
  5
C6
330
C1
100
AcDbEntity
  8
KOTY
100
AcDbLine
 10
105.8615595364
 20
163.9821812434
 30
0.0
 11
105.8615595364
 21
150.5490346335
 31
0.0
  0
LINE
  5
C7
330
C1
100
AcDbEntity
  8
KOTY
100
AcDbLine
 10
105.8615595364
 20
151.5490346335
 30
0.0
 11
114.8615595364
 21
151.5490346335
 31
0.0
  0
LINE
  5
C8
330
C1
100
AcDbEntity
  8
KOTY
100
AcDbLine
 10
114.8615595364
 20
151.5490346335
 30
0.0
 11
124.7084324272
 21
151.5490346335
 31
0.0
  0
MTEXT
  5
C9
330
C1
100
AcDbEntity
  8
KOTY
100
AcDbMText
 10
121.2737153554
 20
154.7423939503
 30
0.0
 40
2.5
 41
0.0
 71
     1
 72
     1
  1
9
  7
SLDTEXTSTYLE0
 73
     1
 44
1.0
  0
ENDBLK
  5
C3
330
C1
100
AcDbEntity
  8
0
100
AcDbBlockEnd
  0
BLOCK
  5
119
330
118
100
AcDbEntity
  8
0
100
AcDbBlockBegin
  2
*D5
 70
     1
 10
0.0
 20
0.0
 30
0.0
  3
*D5
  1

  0
SOLID
  5
11B
330
118
100
AcDbEntity
  8
KOTY
100
AcDbTrace
 10
83.8615595364
 20
238.5621766849
 30
0.0
 11
83.4769441517
 21
236.0621766849
 31
0.0
 12
84.246174921
 22
236.0621766849
 32
0.0
 13
84.246174921
 23
236.0621766849
 33
0.0
  0
SOLID
  5
11C
330
118
100
AcDbEntity
  8
KOTY
100
AcDbTrace
 10
83.8615595364
 20
249.5621766848
 30
0.0
 11
84.246174921
 21
252.0621766848
 31
0.0
 12
83.4769441517
 22
252.0621766848
 32
0.0
 13
83.4769441517
 23
252.0621766848
 33
0.0
  0
LINE
  5
11D
330
118
100
AcDbEntity
  8
KOTY
100
AcDbLine
 10
94.3615595364
 20
238.5621766849
 30
0.0
 11
82.8615595364
 21
238.5621766849
 31
0.0
  0
LINE
  5
11E
330
118
100
AcDbEntity
  8
KOTY
100
AcDbLine
 10
94.3615595364
 20
249.5621766848
 30
0.0
 11
82.8615595364
 21
249.5621766848
 31
0.0
  0
LINE
  5
11F
330
118
100
AcDbEntity
  8
KOTY
100
AcDbLine
 10
83.8615595364
 20
238.5621766849
 30
0.0
 11
83.8615595364
 21
233.7544843772
 31
0.0
  0
LINE
  5
120
330
118
100
AcDbEntity
  8
KOTY
100
AcDbLine
 10
83.8615595364
 20
238.5621766849
 30
0.0
 11
83.8615595364
 21
249.5621766848
 31
0.0
  0
LINE
  5
121
330
118
100
AcDbEntity
  8
KOTY
100
AcDbLine
 10
83.8615595364
 20
249.5621766848
 30
0.0
 11
83.8615595364
 21
254.3698689925
 31
0.0
  0
MTEXT
  5
122
330
118
100
AcDbEntity
  8
KOTY
100
AcDbMText
 10
80.6682002196
 20
244.2058308054
 30
0.0
 40
2.5
 41
0.0
 71
     1
 72
     1
  1
11
  7
SLDTEXTSTYLE0
 11
6.123233995736766E-17
 21
1.0
 31
0.0
 73
     1
 44
1.0
  0
ENDBLK
  5
11A
330
118
100
AcDbEntity
  8
0
100
AcDbBlockEnd
  0
BLOCK
  5
125
330
124
100
AcDbEntity
  8
0
100
AcDbBlockBegin
  2
*D6
 70
     1
 10
0.0
 20
0.0
 30
0.0
  3
*D6
  1

  0
SOLID
  5
127
330
124
100
AcDbEntity
  8
KOTY
100
AcDbTrace
 10
101.1615595364
 20
225.3314268784
 30
0.0
 11
103.6615595364
 21
224.9468114938
 31
0.0
 12
103.6615595364
 22
225.716042263
 32
0.0
 13
103.6615595364
 23
225.716042263
 33
0.0
  0
SOLID
  5
128
330
124
100
AcDbEntity
  8
KOTY
100
AcDbTrace
 10
110.5615595364
 20
225.3314268784
 30
0.0
 11
108.0615595364
 21
225.716042263
 31
0.0
 12
108.0615595364
 22
224.9468114938
 32
0.0
 13
108.0615595364
 23
224.9468114938
 33
0.0
  0
LINE
  5
129
330
124
100
AcDbEntity
  8
KOTY
100
AcDbLine
 10
101.1615595364
 20
233.2621766849
 30
0.0
 11
101.1615595364
 21
224.3314268784
 31
0.0
  0
LINE
  5
12A
330
124
100
AcDbEntity
  8
KOTY
100
AcDbLine
 10
110.5615595364
 20
233.2621766849
 30
0.0
 11
110.5615595364
 21
224.3314268784
 31
0.0
  0
LINE
  5
12B
330
124
100
AcDbEntity
  8
KOTY
100
AcDbLine
 10
101.1615595364
 20
225.3314268784
 30
0.0
 11
110.5615595364
 21
225.3314268784
 31
0.0
  0
LINE
  5
12C
330
124
100
AcDbEntity
  8
KOTY
100
AcDbLine
 10
110.5615595364
 20
225.3314268784
 30
0.0
 11
121.4705239819
 21
225.3314268784
 31
0.0
  0
MTEXT
  5
12D
330
124
100
AcDbEntity
  8
KOTY
100
AcDbMText
 10
115.2649813024
 20
228.5247861952
 30
0.0
 40
2.5
 41
0.0
 71
     1
 72
     1
  1
9,4
  7
SLDTEXTSTYLE0
 73
     1
 44
1.0
  0
ENDBLK
  5
126
330
124
100
AcDbEntity
  8
0
100
AcDbBlockEnd
  0
BLOCK
  5
130
330
12F
100
AcDbEntity
  8
0
100
AcDbBlockBegin
  2
*D7
 70
     1
 10
0.0
 20
0.0
 30
0.0
  3
*D7
  1

  0
SOLID
  5
132
330
12F
100
AcDbEntity
  8
KOTY
100
AcDbTrace
 10
128.6846664319
 20
233.0621766849
 30
0.0
 11
129.0692818166
 21
235.5621766849
 31
0.0
 12
128.3000510473
 22
235.5621766849
 32
0.0
 13
128.3000510473
 23
235.5621766849
 33
0.0
  0
SOLID
  5
133
330
12F
100
AcDbEntity
  8
KOTY
100
AcDbTrace
 10
128.6846664319
 20
253.0621766849
 30
0.0
 11
128.3000510473
 21
250.5621766849
 31
0.0
 12
129.0692818166
 22
250.5621766849
 32
0.0
 13
129.0692818166
 23
250.5621766849
 33
0.0
  0
LINE
  5
134
330
12F
100
AcDbEntity
  8
KOTY
100
AcDbLine
 10
114.0615595364
 20
233.0621766849
 30
0.0
 11
129.6846664319
 21
233.0621766849
 31
0.0
  0
LINE
  5
135
330
12F
100
AcDbEntity
  8
KOTY
100
AcDbLine
 10
114.0615595364
 20
253.0621766849
 30
0.0
 11
129.6846664319
 21
253.0621766849
 31
0.0
  0
LINE
  5
136
330
12F
100
AcDbEntity
  8
KOTY
100
AcDbLine
 10
128.6846664319
 20
233.0621766849
 30
0.0
 11
128.6846664319
 21
253.0621766849
 31
0.0
  0
MTEXT
  5
137
330
12F
100
AcDbEntity
  8
KOTY
100
AcDbMText
 10
125.4913071151
 20
241.6382408202
 30
0.0
 40
2.5
 41
0.0
 71
     1
 72
     1
  1
20
  7
SLDTEXTSTYLE0
 11
6.123233995736766E-17
 21
1.0
 31
0.0
 73
     1
 44
1.0
  0
ENDBLK
  5
131
330
12F
100
AcDbEntity
  8
0
100
AcDbBlockEnd
  0
BLOCK
  5
13A
330
139
100
AcDbEntity
  8
0
100
AcDbBlockBegin
  2
*D8
 70
     1
 10
0.0
 20
0.0
 30
0.0
  3
*D8
  1

  0
SOLID
  5
13C
330
139
100
AcDbEntity
  8
KOTY
100
AcDbTrace
 10
114.8615595364
 20
263.2354207862
 30
0.0
 11
112.3615595364
 21
263.6200361708
 31
0.0
 12
112.3615595364
 22
262.8508054016
 32
0.0
 13
112.3615595364
 23
262.8508054016
 33
0.0
  0
SOLID
  5
13D
330
139
100
AcDbEntity
  8
KOTY
100
AcDbTrace
 10
93.8615595364
 20
263.2354207862
 30
0.0
 11
96.3615595364
 21
262.8508054016
 31
0.0
 12
96.3615595364
 22
263.6200361708
 32
0.0
 13
96.3615595364
 23
263.6200361708
 33
0.0
  0
LINE
  5
13E
330
139
100
AcDbEntity
  8
KOTY
100
AcDbLine
 10
114.8615595364
 20
252.2621766849
 30
0.0
 11
114.8615595364
 21
264.2354207862
 31
0.0
  0
LINE
  5
13F
330
139
100
AcDbEntity
  8
KOTY
100
AcDbLine
 10
93.8615595364
 20
252.2621766848
 30
0.0
 11
93.8615595364
 21
264.2354207862
 31
0.0
  0
LINE
  5
140
330
139
100
AcDbEntity
  8
KOTY
100
AcDbLine
 10
114.8615595364
 20
263.2354207862
 30
0.0
 11
93.8615595364
 21
263.2354207862
 31
0.0
  0
MTEXT
  5
141
330
139
100
AcDbEntity
  8
KOTY
100
AcDbMText
 10
103.1622946055
 20
266.428780103
 30
0.0
 40
2.5
 41
0.0
 71
     1
 72
     1
  1
21
  7
SLDTEXTSTYLE0
 73
     1
 44
1.0
  0
ENDBLK
  5
13B
330
139
100
AcDbEntity
  8
0
100
AcDbBlockEnd
  0
ENDSEC
  0
SECTION
  2
ENTITIES
  0
LINE
  5
5D
330
1F
100
AcDbEntity
  8
OBRYS
100
AcDbLine
 10
109.0615532257
 20
113.9821812434
 30
0.0
 11
111.4615640499
 21
113.9821812434
 31
0.0
  0
LINE
  5
5E
330
1F
100
AcDbEntity
  8
OBRYS
100
AcDbLine
 10
109.0615532257
 20
158.9055687113
 30
0.0
 11
109.0615532257
 21
113.9821812434
 31
0.0
  0
LINE
  5
5F
330
1F
100
AcDbEntity
  8
OBRYS
100
AcDbLine
 10
111.4615640499
 20
161.8253320379
 30
0.0
 11
111.4615640499
 21
113.9821812434
 31
0.0
  0
ARC
  5
60
330
1F
100
AcDbEntity
  8
OBRYS
100
AcDbCircle
 10
105.8603618677
 20
163.9831819186
 30
0.0
 40
6.002481319704518
100
AcDbArc
 50
302.2294629944
 51
338.9309387063
  0
LINE
  5
61
330
1F
100
AcDbEntity
  8
OBRYS
100
AcDbLine
 10
100.2615532734
 20
213.9821827335
 30
0.0
 11
102.6615640976
 21
213.9821827335
 31
0.0
  0
LINE
  5
62
330
1F
100
AcDbEntity
  8
OBRYS
100
AcDbLine
 10
102.6615640976
 20
213.9821827335
 30
0.0
 11
102.6615640976
 21
169.0587952657
 31
0.0
  0
LINE
  5
63
330
1F
100
AcDbEntity
  8
OBRYS
100
AcDbLine
 10
100.2615532734
 20
213.9821827335
 30
0.0
 11
100.2615532734
 21
166.139031939
 31
0.0
  0
ARC
  5
64
330
1F
100
AcDbEntity
  8
OBRYS
100
AcDbCircle
 10
105.8628184767
 20
163.9811302558
 30
0.0
 40
6.002558750336297
100
AcDbArc
 50
122.2297081522
 51
158.9306935486
  0
LINE
  5
65
330
1F
100
AcDbEntity
  8
OBRYS
100
AcDbLine
 10
100.2615532734
 20
113.9821812434
 30
0.0
 11
102.6615640976
 21
113.9821812434
 31
0.0
  0
LINE
  5
66
330
1F
100
AcDbEntity
  8
OBRYS
100
AcDbLine
 10
100.2615532734
 20
161.8253320379
 30
0.0
 11
100.2615532734
 21
113.9821812434
 31
0.0
  0
LINE
  5
67
330
1F
100
AcDbEntity
  8
OBRYS
100
AcDbLine
 10
102.6615640976
 20
158.9055687113
 30
0.0
 11
102.6615640976
 21
113.9821812434
 31
0.0
  0
ARC
  5
68
330
1F
100
AcDbEntity
  8
OBRYS
100
AcDbCircle
 10
105.8616045214
 20
163.9822358643
 30
0.0
 40
6.001067246420559
100
AcDbArc
 50
201.0645829383
 51
237.7750153609
  0
LINE
  5
69
330
1F
100
AcDbEntity
  8
OBRYS
100
AcDbLine
 10
109.0615532257
 20
213.9821827335
 30
0.0
 11
111.4615640499
 21
213.9821827335
 31
0.0
  0
LINE
  5
6A
330
1F
100
AcDbEntity
  8
OBRYS
100
AcDbLine
 10
111.4615640499
 20
213.9821827335
 30
0.0
 11
111.4615640499
 21
166.139031939
 31
0.0
  0
LINE
  5
6B
330
1F
100
AcDbEntity
  8
OBRYS
100
AcDbLine
 10
109.0615532257
 20
213.9821827335
 30
0.0
 11
109.0615532257
 21
169.0587952657
 31
0.0
  0
ARC
  5
6C
330
1F
100
AcDbEntity
  8
OBRYS
100
AcDbCircle
 10
105.861512802
 20
163.9821281127
 30
0.0
 40
6.001067246420559
100
AcDbArc
 50
21.0645829383
 51
57.7750153609
  0
LINE
  5
6D
330
1F
100
AcDbEntity
  8
OBRYS
100
AcDbLine
 10
114.8615619995
 20
213.9821827335
 30
0.0
 11
114.8615619995
 21
113.9821812434
 31
0.0
  0
LINE
  5
6E
330
1F
100
AcDbEntity
  8
OBRYS
100
AcDbLine
 10
114.0615633585
 20
113.9821812434
 30
0.0
 11
114.8615619995
 21
113.9821812434
 31
0.0
  0
LINE
  5
6F
330
1F
100
AcDbEntity
  8
OBRYS
100
AcDbLine
 10
114.0615633585
 20
213.9821827335
 30
0.0
 11
114.8615619995
 21
213.9821827335
 31
0.0
  0
LINE
  5
70
330
1F
100
AcDbEntity
  8
OBRYS
100
AcDbLine
 10
111.4615640499
 20
113.9821812434
 30
0.0
 11
114.0615633585
 21
113.9821812434
 31
0.0
  0
LINE
  5
71
330
1F
100
AcDbEntity
  8
OBRYS
100
AcDbLine
 10
111.4615640499
 20
213.9821827335
 30
0.0
 11
114.0615633585
 21
213.9821827335
 31
0.0
  0
ARC
  5
72
330
1F
100
AcDbEntity
  8
OBRYS
100
AcDbCircle
 10
105.8615595364
 20
163.9821812434
 30
0.0
 40
6.000999999999991
100
AcDbArc
 50
338.9357226783
 51
21.0642773217
  0
LINE
  5
73
330
1F
100
AcDbEntity
  8
OBRYS
100
AcDbLine
 10
106.4677826025
 20
213.9821827335
 30
0.0
 11
106.4677826025
 21
169.9524812324
 31
0.0
  0
LINE
  5
74
330
1F
100
AcDbEntity
  8
OBRYS
100
AcDbLine
 10
106.4677826025
 20
213.9821827335
 30
0.0
 11
109.0615532257
 21
213.9821827335
 31
0.0
  0
ARC
  5
75
330
1F
100
AcDbEntity
  8
OBRYS
100
AcDbCircle
 10
105.8615595364
 20
163.9821812434
 30
0.0
 40
6.001000000000031
100
AcDbArc
 50
57.775066882
 51
84.2021214406
  0
LINE
  5
76
330
1F
100
AcDbEntity
  8
OBRYS
100
AcDbLine
 10
105.8615586617
 20
139.9831820203
 30
0.0
 11
105.8615586617
 21
113.9821812434
 31
0.0
  0
ARC
  5
77
330
1F
100
AcDbEntity
  8
OBRYS
100
AcDbCircle
 10
105.8615595364
 20
142.4831812434
 30
0.0
 40
2.500000000000028
100
AcDbArc
 50
270.0
 51
284.0333784112
  0
LINE
  5
78
330
1F
100
AcDbEntity
  8
OBRYS
100
AcDbLine
 10
106.4677826025
 20
140.057793997
 30
0.0
 11
106.4677826025
 21
113.9821812434
 31
0.0
  0
LINE
  5
79
330
1F
100
AcDbEntity
  8
OBRYS
100
AcDbLine
 10
105.8615586617
 20
113.9821812434
 30
0.0
 11
106.4677826025
 21
113.9821812434
 31
0.0
  0
ARC
  5
7A
330
1F
100
AcDbEntity
  8
OBRYS
100
AcDbCircle
 10
105.8615595364
 20
142.4831812434
 30
0.0
 40
2.500000000000028
100
AcDbArc
 50
284.0333784112
 51
0.0
  0
LINE
  5
7B
330
1F
100
AcDbEntity
  8
OBRYS
100
AcDbLine
 10
108.3615562775
 20
142.4831814988
 30
0.0
 11
108.3615562775
 21
158.5267253144
 31
0.0
  0
LINE
  5
7C
330
1F
100
AcDbEntity
  8
OBRYS
100
AcDbLine
 10
106.4677826025
 20
113.9821812434
 30
0.0
 11
109.0615532257
 21
113.9821812434
 31
0.0
  0
ARC
  5
7D
330
1F
100
AcDbEntity
  8
OBRYS
100
AcDbCircle
 10
105.8615595364
 20
163.9821812434
 30
0.0
 40
6.000999999999991
100
AcDbArc
 50
294.6199422452
 51
302.224933118
  0
LINE
  5
7E
330
1F
100
AcDbEntity
  8
OBRYS
100
AcDbLine
 10
105.8615586617
 20
213.9821827335
 30
0.0
 11
105.8615586617
 21
169.9831813497
 31
0.0
  0
LINE
  5
7F
330
1F
100
AcDbEntity
  8
OBRYS
100
AcDbLine
 10
105.8615586617
 20
213.9821827335
 30
0.0
 11
106.4677826025
 21
213.9821827335
 31
0.0
  0
ARC
  5
80
330
1F
100
AcDbEntity
  8
OBRYS
100
AcDbCircle
 10
105.8615595364
 20
163.9821812434
 30
0.0
 40
6.001000000000031
100
AcDbArc
 50
84.2021214406
 51
90.0
  0
LINE
  5
81
330
1F
100
AcDbEntity
  8
OBRYS
100
AcDbLine
 10
103.3615610459
 20
158.5267253144
 30
0.0
 11
103.3615610459
 21
142.4831814988
 31
0.0
  0
ARC
  5
82
330
1F
100
AcDbEntity
  8
OBRYS
100
AcDbCircle
 10
105.8615595364
 20
142.4831812434
 30
0.0
 40
2.500000000000028
100
AcDbArc
 50
180.0
 51
255.9666215905
  0
LINE
  5
83
330
1F
100
AcDbEntity
  8
OBRYS
100
AcDbLine
 10
105.2553347208
 20
140.057793997
 30
0.0
 11
105.2553347208
 21
113.9821812434
 31
0.0
  0
LINE
  5
84
330
1F
100
AcDbEntity
  8
OBRYS
100
AcDbLine
 10
102.6615640976
 20
113.9821812434
 30
0.0
 11
105.2553347208
 21
113.9821812434
 31
0.0
  0
ARC
  5
85
330
1F
100
AcDbEntity
  8
OBRYS
100
AcDbCircle
 10
105.8615595364
 20
163.9821812434
 30
0.0
 40
6.000999999999987
100
AcDbArc
 50
237.7750668817
 51
245.3800577548
  0
LINE
  5
86
330
1F
100
AcDbEntity
  8
OBRYS
100
AcDbLine
 10
105.2553347208
 20
213.9821827335
 30
0.0
 11
105.2553347208
 21
169.9524812324
 31
0.0
  0
LINE
  5
87
330
1F
100
AcDbEntity
  8
OBRYS
100
AcDbLine
 10
105.2553347208
 20
213.9821827335
 30
0.0
 11
105.8615586617
 21
213.9821827335
 31
0.0
  0
ARC
  5
88
330
1F
100
AcDbEntity
  8
OBRYS
100
AcDbCircle
 10
105.8615595364
 20
163.9821812434
 30
0.0
 40
6.001000000000033
100
AcDbArc
 50
90.0
 51
95.7978785587
  0
LINE
  5
89
330
1F
100
AcDbEntity
  8
OBRYS
100
AcDbLine
 10
93.8615641453
 20
213.9821827335
 30
0.0
 11
93.8615641453
 21
113.9821812434
 31
0.0
  0
LINE
  5
8A
330
1F
100
AcDbEntity
  8
OBRYS
100
AcDbLine
 10
93.8615641453
 20
113.9821812434
 30
0.0
 11
94.6615627863
 21
113.9821812434
 31
0.0
  0
LINE
  5
8B
330
1F
100
AcDbEntity
  8
OBRYS
100
AcDbLine
 10
93.8615641453
 20
213.9821827335
 30
0.0
 11
94.6615627863
 21
213.9821827335
 31
0.0
  0
LINE
  5
8C
330
1F
100
AcDbEntity
  8
OBRYS
100
AcDbLine
 10
94.6615627863
 20
113.9821812434
 30
0.0
 11
100.2615532734
 21
113.9821812434
 31
0.0
  0
LINE
  5
8D
330
1F
100
AcDbEntity
  8
OBRYS
100
AcDbLine
 10
94.6615627863
 20
213.9821827335
 30
0.0
 11
100.2615532734
 21
213.9821827335
 31
0.0
  0
ARC
  5
8E
330
1F
100
AcDbEntity
  8
OBRYS
100
AcDbCircle
 10
105.8615595364
 20
163.9821812434
 30
0.0
 40
6.001000000000016
100
AcDbArc
 50
158.935722679
 51
201.064277321
  0
ARC
  5
8F
330
1F
100
AcDbEntity
  8
OBRYS
100
AcDbCircle
 10
105.8615595364
 20
142.4831812434
 30
0.0
 40
2.500000000000014
100
AcDbArc
 50
255.9666215905
 51
270.0
  0
LINE
  5
90
330
1F
100
AcDbEntity
  8
OBRYS
100
AcDbLine
 10
105.2553347208
 20
113.9821812434
 30
0.0
 11
105.8615586617
 21
113.9821812434
 31
0.0
  0
LINE
  5
91
330
1F
100
AcDbEntity
  8
OBRYS
100
AcDbLine
 10
102.6615640976
 20
213.9821827335
 30
0.0
 11
105.2553347208
 21
213.9821827335
 31
0.0
  0
ARC
  5
92
330
1F
100
AcDbEntity
  8
OBRYS
100
AcDbCircle
 10
105.8615595364
 20
163.9821812434
 30
0.0
 40
6.001000000000033
100
AcDbArc
 50
95.7978785587
 51
122.2249331183
  0
LINE
  5
93
330
1F
100
AcDbEntity
  8
OBRYS
100
AcDbLine
 10
101.1615536072
 20
167.7088320179
 30
0.0
 11
101.1615536072
 21
160.2551966829
 31
0.0
  0
LINE
  5
94
330
1F
100
AcDbEntity
  8
OBRYS
100
AcDbLine
 10
110.5615637162
 20
167.709167294
 30
0.0
 11
110.5615637162
 21
160.2555319591
 31
0.0
  0
LINE
  5
95
330
1F
100
AcDbEntity
  8
0
  6
Continuous
 62
     7
100
AcDbLine
 10
114.0615633585
 20
213.9821827335
 30
0.0
 11
114.0615633585
 21
113.9821812434
 31
0.0
  0
LINE
  5
96
330
1F
100
AcDbEntity
  8
0
  6
Continuous
 62
     7
100
AcDbLine
 10
94.6615627863
 20
213.9821827335
 30
0.0
 11
94.6615627863
 21
113.9821812434
 31
0.0
  0
LINE
  5
97
330
1F
100
AcDbEntity
  8
0
  6
Continuous
 62
     7
100
AcDbLine
 10
100.9615651228
 20
167.4383237882
 30
0.0
 11
100.9615651228
 21
160.5190180166
 31
0.0
  0
LINE
  5
98
330
1F
100
AcDbEntity
  8
0
  6
Continuous
 62
     7
100
AcDbLine
 10
110.7615522005
 20
167.4453459604
 30
0.0
 11
110.7615522005
 21
160.5260364635
 31
0.0
  0
DIMENSION
  5
99
330
1F
100
AcDbEntity
  8
KOTY
100
AcDbDimension
  2
*D1
 10
108.3615595364
 20
134.7923046492
 30
0.0
 11
122.1973238913
 21
134.7923046492
 31
0.0
 70
   160
 71
     2
 42
-1.0
  3
SLDDIMSTYLE0
100
AcDbAlignedDimension
 13
103.3615595364
 23
142.4831812434
 33
0.0
 14
108.3615595364
 24
142.4831812434
 34
0.0
100
AcDbRotatedDimension
  0
DIMENSION
  5
A7
330
1F
100
AcDbEntity
  8
KOTY
100
AcDbDimension
  2
*D2
 10
83.8615595364
 20
163.9821812434
 30
0.0
 11
83.8615595364
 21
153.7933272438
 31
0.0
 70
   160
 71
     2
 42
-1.0
  3
SLDDIMSTYLE1
100
AcDbAlignedDimension
 13
105.8615595364
 23
142.4831812434
 33
0.0
 14
105.8615595364
 24
163.9821812434
 34
0.0
 50
90.0
100
AcDbRotatedDimension
  0
DIMENSION
  5
B2
330
1F
100
AcDbEntity
  8
KOTY
100
AcDbDimension
  2
*D3
 10
111.208489688
 20
166.7065782324
 30
0.0
 11
122.1973338913
 21
172.3056789192
 31
0.0
 70
   163
  1
<>
 71
     1
 42
-1.0
  3
SLDDIMSTYLE2
100
AcDbDiametricDimension
 15
100.5146293847
 25
161.2577842545
 35
0.0
 40
0.0
  0
DIMENSION
  5
BF
330
1F
100
AcDbEntity
  8
KOTY
100
AcDbDimension
  2
*D4
 10
114.8615595364
 20
151.5490346335
 30
0.0
 11
122.1973238913
 21
151.5490346335
 31
0.0
 70
   160
 71
     2
 42
-1.0
  3
SLDDIMSTYLE3
100
AcDbAlignedDimension
 13
105.8615595364
 23
163.9821812434
 33
0.0
 14
114.8615595364
 24
113.9821812434
 34
0.0
 50
0.0
100
AcDbRotatedDimension
  0
LINE
  5
CA
330
1F
100
AcDbEntity
  8
OBRYS
100
AcDbLine
 10
93.8615641453
 20
233.8621851994
 30
0.0
 11
93.8615641453
 21
236.6961476399
 31
0.0
  0
LINE
  5
CB
330
1F
100
AcDbEntity
  8
OBRYS
100
AcDbLine
 10
93.8615641453
 20
236.6961476399
 30
0.0
 11
94.361557708
 21
238.5621902539
 31
0.0
  0
LINE
  5
CC
330
1F
100
AcDbEntity
  8
OBRYS
100
AcDbLine
 10
94.361557708
 20
238.5621902539
 30
0.0
 11
94.8615661719
 21
238.5621902539
 31
0.0
  0
LINE
  5
CD
330
1F
100
AcDbEntity
  8
OBRYS
100
AcDbLine
 10
94.8615661719
 20
238.5621902539
 30
0.0
 11
94.8615661719
 21
234.062188585
 31
0.0
  0
LINE
  5
CE
330
1F
100
AcDbEntity
  8
OBRYS
100
AcDbLine
 10
94.8615661719
 20
234.062188585
 30
0.0
 11
96.8615553238
 21
234.062188585
 31
0.0
  0
LINE
  5
CF
330
1F
100
AcDbEntity
  8
OBRYS
100
AcDbLine
 10
96.8615553238
 20
234.062188585
 30
0.0
 11
96.8615553238
 21
252.0621803595
 31
0.0
  0
LINE
  5
D0
330
1F
100
AcDbEntity
  8
OBRYS
100
AcDbLine
 10
96.8615553238
 20
252.0621803595
 30
0.0
 11
94.8615661719
 21
252.0621803595
 31
0.0
  0
LINE
  5
D1
330
1F
100
AcDbEntity
  8
OBRYS
100
AcDbLine
 10
94.8615661719
 20
252.0621803595
 30
0.0
 11
94.8615661719
 21
249.5621827437
 31
0.0
  0
LINE
  5
D2
330
1F
100
AcDbEntity
  8
OBRYS
100
AcDbLine
 10
94.8615661719
 20
249.5621827437
 30
0.0
 11
94.361557708
 21
249.5621827437
 31
0.0
  0
LINE
  5
D3
330
1F
100
AcDbEntity
  8
OBRYS
100
AcDbLine
 10
94.361557708
 20
249.5621827437
 30
0.0
 11
93.8615641453
 21
251.4281955554
 31
0.0
  0
LINE
  5
D4
330
1F
100
AcDbEntity
  8
OBRYS
100
AcDbLine
 10
93.8615641453
 20
251.4281955554
 30
0.0
 11
93.8615641453
 21
252.2621837451
 31
0.0
  0
ARC
  5
D5
330
1F
100
AcDbEntity
  8
OBRYS
100
AcDbCircle
 10
94.6615595364
 20
252.2621766848
 30
0.0
 40
0.7999999999999972
100
AcDbArc
 50
90.0
 51
180.0
  0
LINE
  5
D6
330
1F
100
AcDbEntity
  8
OBRYS
100
AcDbLine
 10
94.6615627863
 20
253.0621823861
 30
0.0
 11
100.2615532734
 21
253.0621823861
 31
0.0
  0
ARC
  5
D7
330
1F
100
AcDbEntity
  8
OBRYS
100
AcDbCircle
 10
101.4615595364
 20
253.0621766848
 30
0.0
 40
1.200000000000003
100
AcDbArc
 50
180.0
 51
0.0
  0
LINE
  5
D8
330
1F
100
AcDbEntity
  8
OBRYS
100
AcDbLine
 10
102.6615640976
 20
253.0621823861
 30
0.0
 11
105.2553347208
 21
253.0621823861
 31
0.0
  0
LINE
  5
D9
330
1F
100
AcDbEntity
  8
OBRYS
100
AcDbLine
 10
105.2553347208
 20
253.0621823861
 30
0.0
 11
105.8615586617
 21
252.712183912
 31
0.0
  0
LINE
  5
DA
330
1F
100
AcDbEntity
  8
OBRYS
100
AcDbLine
 10
105.8615586617
 20
252.712183912
 30
0.0
 11
106.4677826025
 21
253.0621823861
 31
0.0
  0
LINE
  5
DB
330
1F
100
AcDbEntity
  8
OBRYS
100
AcDbLine
 10
106.4677826025
 20
253.0621823861
 30
0.0
 11
109.0615532257
 21
253.0621823861
 31
0.0
  0
ARC
  5
DC
330
1F
100
AcDbEntity
  8
OBRYS
100
AcDbCircle
 10
110.2615595364
 20
253.0621766849
 30
0.0
 40
1.199999999999974
100
AcDbArc
 50
180.0
 51
0.0
  0
LINE
  5
DD
330
1F
100
AcDbEntity
  8
OBRYS
100
AcDbLine
 10
111.4615640499
 20
253.0621823861
 30
0.0
 11
114.0615633585
 21
253.0621823861
 31
0.0
  0
ARC
  5
DE
330
1F
100
AcDbEntity
  8
OBRYS
100
AcDbCircle
 10
114.0615595364
 20
252.2621766849
 30
0.0
 40
0.8000000000000398
100
AcDbArc
 50
0.0
 51
90.0
  0
LINE
  5
DF
330
1F
100
AcDbEntity
  8
OBRYS
100
AcDbLine
 10
114.8615619995
 20
252.2621837451
 30
0.0
 11
114.8615619995
 21
233.8621851994
 31
0.0
  0
ARC
  5
E0
330
1F
100
AcDbEntity
  8
OBRYS
100
AcDbCircle
 10
114.0615595364
 20
233.8621766849
 30
0.0
 40
0.8000000000000398
100
AcDbArc
 50
270.0
 51
0.0
  0
LINE
  5
E1
330
1F
100
AcDbEntity
  8
OBRYS
100
AcDbLine
 10
114.0615633585
 20
233.0621716572
 30
0.0
 11
110.7615522005
 21
233.0621716572
 31
0.0
  0
ARC
  5
E2
330
1F
100
AcDbEntity
  8
OBRYS
100
AcDbCircle
 10
110.7615595364
 20
233.2621766849
 30
0.0
 40
0.2000000000000028
100
AcDbArc
 50
180.0
 51
270.0
  0
LINE
  5
E3
330
1F
100
AcDbEntity
  8
OBRYS
100
AcDbLine
 10
110.5615637162
 20
233.2621750428
 30
0.0
 11
110.5615637162
 21
233.5232433869
 31
0.0
  0
ARC
  5
E4
330
1F
100
AcDbEntity
  8
OBRYS
100
AcDbCircle
 10
111.5615595364
 20
233.5232484455
 30
0.0
 40
1.000000000004945
100
AcDbArc
 50
105.0000000041
 51
180.0
  0
LINE
  5
E5
330
1F
100
AcDbEntity
  8
OBRYS
100
AcDbLine
 10
111.3027474739
 20
234.4891664578
 30
0.0
 11
111.9356742956
 21
234.6587714745
 31
0.0
  0
ARC
  5
E6
330
1F
100
AcDbEntity
  8
OBRYS
100
AcDbCircle
 10
111.9615595364
 20
234.5621766848
 30
0.0
 40
0.1000000000000093
100
AcDbArc
 50
0.0
 51
105.0
  0
LINE
  5
E7
330
1F
100
AcDbEntity
  8
OBRYS
100
AcDbLine
 10
112.0615593054
 20
234.5621821477
 30
0.0
 11
112.0615593054
 21
234.062188585
 31
0.0
  0
LINE
  5
E8
330
1F
100
AcDbEntity
  8
OBRYS
100
AcDbLine
 10
112.0615593054
 20
234.062188585
 30
0.0
 11
113.5615548947
 21
234.062188585
 31
0.0
  0
ARC
  5
E9
330
1F
100
AcDbEntity
  8
OBRYS
100
AcDbCircle
 10
113.5615595364
 20
234.3621766849
 30
0.0
 40
0.3000000000000398
100
AcDbArc
 50
270.0
 51
0.0
  0
LINE
  5
EA
330
1F
100
AcDbEntity
  8
OBRYS
100
AcDbLine
 10
113.861559973
 20
234.3621787621
 30
0.0
 11
113.861559973
 21
236.6621729924
 31
0.0
  0
ARC
  5
EB
330
1F
100
AcDbEntity
  8
OBRYS
100
AcDbCircle
 10
113.5615595364
 20
236.6621766848
 30
0.0
 40
0.3000000000000256
100
AcDbArc
 50
0.0
 51
90.0
  0
LINE
  5
EC
330
1F
100
AcDbEntity
  8
OBRYS
100
AcDbLine
 10
113.5615548947
 20
236.9621631695
 30
0.0
 11
112.0615593054
 21
236.9621631695
 31
0.0
  0
LINE
  5
ED
330
1F
100
AcDbEntity
  8
OBRYS
100
AcDbLine
 10
112.0615593054
 20
236.9621631695
 30
0.0
 11
112.0615593054
 21
236.4621696068
 31
0.0
  0
ARC
  5
EE
330
1F
100
AcDbEntity
  8
OBRYS
100
AcDbCircle
 10
111.9615595363
 20
236.4621766849
 30
0.0
 40
0.1000000000330013
100
AcDbArc
 50
255.0000000162
 51
360.0
  0
LINE
  5
EF
330
1F
100
AcDbEntity
  8
OBRYS
100
AcDbLine
 10
111.9356742956
 20
236.36558028
 30
0.0
 11
111.3027474739
 21
236.5351852967
 31
0.0
  0
ARC
  5
F0
330
1F
100
AcDbEntity
  8
OBRYS
100
AcDbCircle
 10
111.5615595363
 20
237.5011049242
 30
0.0
 40
0.9999999999999716
100
AcDbArc
 50
180.0
 51
254.9999999977
  0
LINE
  5
F1
330
1F
100
AcDbEntity
  8
OBRYS
100
AcDbLine
 10
110.5615637162
 20
237.5011083676
 30
0.0
 11
110.5615637162
 21
237.7621767117
 31
0.0
  0
ARC
  5
F2
330
1F
100
AcDbEntity
  8
OBRYS
100
AcDbCircle
 10
110.7615595363
 20
237.7621766849
 30
0.0
 40
0.1999999999999886
100
AcDbArc
 50
90.0
 51
180.0
  0
LINE
  5
F3
330
1F
100
AcDbEntity
  8
OBRYS
100
AcDbLine
 10
110.7615522005
 20
237.9621800973
 30
0.0
 11
113.5615548947
 21
237.9621800973
 31
0.0
  0
ARC
  5
F4
330
1F
100
AcDbEntity
  8
OBRYS
100
AcDbCircle
 10
113.5615595363
 20
238.2621766849
 30
0.0
 40
0.3000000000000256
100
AcDbArc
 50
270.0
 51
0.0
  0
LINE
  5
F5
330
1F
100
AcDbEntity
  8
OBRYS
100
AcDbLine
 10
113.861559973
 20
238.2621702744
 30
0.0
 11
113.861559973
 21
250.8621749474
 31
0.0
  0
ARC
  5
F6
330
1F
100
AcDbEntity
  8
OBRYS
100
AcDbCircle
 10
112.8615595363
 20
250.8621766849
 30
0.0
 40
1.0
100
AcDbArc
 50
0.0
 51
180.0
  0
LINE
  5
F7
330
1F
100
AcDbEntity
  8
OBRYS
100
AcDbLine
 10
111.8615559199
 20
250.8621749474
 30
0.0
 11
111.8615559199
 21
249.7621712281
 31
0.0
  0
ARC
  5
F8
330
1F
100
AcDbEntity
  8
OBRYS
100
AcDbCircle
 10
111.6615595363
 20
249.7621766849
 30
0.0
 40
0.2000000000000171
100
AcDbArc
 50
270.0
 51
0.0
  0
LINE
  5
F9
330
1F
100
AcDbEntity
  8
OBRYS
100
AcDbLine
 10
111.6615525343
 20
249.5621827437
 30
0.0
 11
110.4115537264
 21
249.5621827437
 31
0.0
  0
LINE
  5
FA
330
1F
100
AcDbEntity
  8
OBRYS
100
AcDbLine
 10
110.4115537264
 20
249.5621827437
 30
0.0
 11
108.1115594961
 21
251.862176974
 31
0.0
  0
LINE
  5
FB
330
1F
100
AcDbEntity
  8
OBRYS
100
AcDbLine
 10
108.1115594961
 20
251.862176974
 30
0.0
 11
103.6115578272
 21
251.862176974
 31
0.0
  0
LINE
  5
FC
330
1F
100
AcDbEntity
  8
OBRYS
100
AcDbLine
 10
103.6115578272
 20
251.862176974
 30
0.0
 11
101.3115635969
 21
249.5621827437
 31
0.0
  0
LINE
  5
FD
330
1F
100
AcDbEntity
  8
OBRYS
100
AcDbLine
 10
101.3115635969
 20
249.5621827437
 30
0.0
 11
100.061564789
 21
249.5621827437
 31
0.0
  0
ARC
  5
FE
330
1F
100
AcDbEntity
  8
OBRYS
100
AcDbCircle
 10
100.0615595364
 20
249.7621766849
 30
0.0
 40
0.1999999999999744
100
AcDbArc
 50
180.0
 51
270.0
  0
LINE
  5
FF
330
1F
100
AcDbEntity
  8
OBRYS
100
AcDbLine
 10
99.8615614035
 20
249.7621712281
 30
0.0
 11
99.8615614035
 21
250.8621749474
 31
0.0
  0
ARC
  5
100
330
1F
100
AcDbEntity
  8
OBRYS
100
AcDbCircle
 10
98.8615595364
 20
250.8621766849
 30
0.0
 40
1.0
100
AcDbArc
 50
0.0
 51
180.0
  0
LINE
  5
101
330
1F
100
AcDbEntity
  8
OBRYS
100
AcDbLine
 10
97.8615573504
 20
250.8621749474
 30
0.0
 11
97.8615573504
 21
238.2621702744
 31
0.0
  0
ARC
  5
102
330
1F
100
AcDbEntity
  8
OBRYS
100
AcDbCircle
 10
98.1615595364
 20
238.2621766849
 30
0.0
 40
0.3000000000000256
100
AcDbArc
 50
180.0
 51
270.0
  0
LINE
  5
103
330
1F
100
AcDbEntity
  8
OBRYS
100
AcDbLine
 10
98.1615624287
 20
237.9621800973
 30
0.0
 11
100.9615651228
 21
237.9621800973
 31
0.0
  0
ARC
  5
104
330
1F
100
AcDbEntity
  8
OBRYS
100
AcDbCircle
 10
100.9615595364
 20
237.7621766849
 30
0.0
 40
0.1999999999999886
100
AcDbArc
 50
0.0
 51
90.0
  0
LINE
  5
105
330
1F
100
AcDbEntity
  8
OBRYS
100
AcDbLine
 10
101.1615536072
 20
237.7621767117
 30
0.0
 11
101.1615536072
 21
237.5011083676
 31
0.0
  0
ARC
  5
106
330
1F
100
AcDbEntity
  8
OBRYS
100
AcDbCircle
 10
100.1615595364
 20
237.5011049242
 30
0.0
 40
1.0
100
AcDbArc
 50
285.0000000023
 51
0.0
  0
LINE
  5
107
330
1F
100
AcDbEntity
  8
OBRYS
100
AcDbLine
 10
100.4203847506
 20
236.5351852967
 30
0.0
 11
99.7874430277
 21
236.36558028
 31
0.0
  0
ARC
  5
108
330
1F
100
AcDbEntity
  8
OBRYS
100
AcDbCircle
 10
99.7615595364
 20
236.4621766849
 30
0.0
 40
0.1000000000330013
100
AcDbArc
 50
180.0
 51
284.9999999838
  0
LINE
  5
109
330
1F
100
AcDbEntity
  8
OBRYS
100
AcDbLine
 10
99.661558018
 20
236.4621696068
 30
0.0
 11
99.661558018
 21
236.9621631695
 31
0.0
  0
LINE
  5
10A
330
1F
100
AcDbEntity
  8
OBRYS
100
AcDbLine
 10
99.661558018
 20
236.9621631695
 30
0.0
 11
98.1615624287
 21
236.9621631695
 31
0.0
  0
ARC
  5
10B
330
1F
100
AcDbEntity
  8
OBRYS
100
AcDbCircle
 10
98.1615595364
 20
236.6621766849
 30
0.0
 40
0.2999999999999687
100
AcDbArc
 50
90.0
 51
180.0
  0
LINE
  5
10C
330
1F
100
AcDbEntity
  8
OBRYS
100
AcDbLine
 10
97.8615573504
 20
236.6621729924
 30
0.0
 11
97.8615573504
 21
234.3621787621
 31
0.0
  0
ARC
  5
10D
330
1F
100
AcDbEntity
  8
OBRYS
100
AcDbCircle
 10
98.1615595364
 20
234.3621766849
 30
0.0
 40
0.3000000000000398
100
AcDbArc
 50
180.0
 51
270.0
  0
LINE
  5
10E
330
1F
100
AcDbEntity
  8
OBRYS
100
AcDbLine
 10
98.1615624287
 20
234.062188585
 30
0.0
 11
99.661558018
 21
234.062188585
 31
0.0
  0
LINE
  5
10F
330
1F
100
AcDbEntity
  8
OBRYS
100
AcDbLine
 10
99.661558018
 20
234.062188585
 30
0.0
 11
99.661558018
 21
234.5621821477
 31
0.0
  0
ARC
  5
110
330
1F
100
AcDbEntity
  8
OBRYS
100
AcDbCircle
 10
99.7615595364
 20
234.5621766848
 30
0.0
 40
0.1000000000000056
100
AcDbArc
 50
75.0
 51
180.0
  0
LINE
  5
111
330
1F
100
AcDbEntity
  8
OBRYS
100
AcDbLine
 10
99.7874430277
 20
234.6587714745
 30
0.0
 11
100.4203847506
 21
234.4891664578
 31
0.0
  0
ARC
  5
112
330
1F
100
AcDbEntity
  8
OBRYS
100
AcDbCircle
 10
100.1615595364
 20
233.5232484455
 30
0.0
 40
1.000000000004945
100
AcDbArc
 50
0.0
 51
74.9999999959
  0
LINE
  5
113
330
1F
100
AcDbEntity
  8
OBRYS
100
AcDbLine
 10
101.1615536072
 20
233.5232433869
 30
0.0
 11
101.1615536072
 21
233.2621750428
 31
0.0
  0
ARC
  5
114
330
1F
100
AcDbEntity
  8
OBRYS
100
AcDbCircle
 10
100.9615595364
 20
233.2621766849
 30
0.0
 40
0.2000000000000313
100
AcDbArc
 50
270.0
 51
0.0
  0
LINE
  5
115
330
1F
100
AcDbEntity
  8
OBRYS
100
AcDbLine
 10
100.9615651228
 20
233.0621716572
 30
0.0
 11
94.6615627863
 21
233.0621716572
 31
0.0
  0
ARC
  5
116
330
1F
100
AcDbEntity
  8
OBRYS
100
AcDbCircle
 10
94.6615595364
 20
233.8621766849
 30
0.0
 40
0.8000000000000398
100
AcDbArc
 50
180.0
 51
270.0
  0
DIMENSION
  5
117
330
1F
100
AcDbEntity
  8
KOTY
100
AcDbDimension
  2
*D5
 10
83.8615595364
 20
249.5621766848
 30
0.0
 11
83.8615595364
 21
246.0530478772
 31
0.0
 70
   160
 71
     2
 42
-1.0
  3
SLDDIMSTYLE0
100
AcDbAlignedDimension
 13
94.3615595364
 23
238.5621766849
 33
0.0
 14
94.3615595364
 24
249.5621766848
 34
0.0
 50
90.0
100
AcDbRotatedDimension
  0
DIMENSION
  5
123
330
1F
100
AcDbEntity
  8
KOTY
100
AcDbDimension
  2
*D6
 10
110.5615595364
 20
225.3314268784
 30
0.0
 11
117.5740026422
 21
225.3314268784
 31
0.0
 70
   160
 71
     2
 42
-1.0
  3
SLDDIMSTYLE1
100
AcDbAlignedDimension
 13
101.1615595364
 23
233.2621766849
 33
0.0
 14
110.5615595364
 24
233.2621766849
 34
0.0
 50
0.0
100
AcDbRotatedDimension
  0
DIMENSION
  5
12E
330
1F
100
AcDbEntity
  8
KOTY
100
AcDbDimension
  2
*D7
 10
128.6846664319
 20
253.0621766849
 30
0.0
 11
128.6846664319
 21
243.485457892
 31
0.0
 70
   160
 71
     2
 42
-1.0
  3
SLDDIMSTYLE3
100
AcDbAlignedDimension
 13
114.0615595364
 23
233.0621766849
 33
0.0
 14
114.0615595364
 24
253.0621766849
 34
0.0
 50
90.0
100
AcDbRotatedDimension
  0
DIMENSION
  5
138
330
1F
100
AcDbEntity
  8
KOTY
100
AcDbDimension
  2
*D8
 10
93.8615595364
 20
263.2354207862
 30
0.0
 11
105.0095116773
 21
263.2354207862
 31
0.0
 70
   160
 71
     2
 42
-1.0
  3
SLDDIMSTYLE3
100
AcDbAlignedDimension
 13
114.8615595364
 23
252.2621766849
 33
0.0
 14
93.8615595364
 24
252.2621766848
 34
0.0
100
AcDbRotatedDimension
  0
ENDSEC
  0
SECTION
  2
OBJECTS
  0
DICTIONARY
  5
C
330
0
100
AcDbDictionary
281
     1
  3
ACAD_GROUP
350
D
  3
ACAD_LAYOUT
350
1A
  3
ACAD_MLINESTYLE
350
17
  3
ACAD_PLOTSETTINGS
350
19
  3
ACAD_PLOTSTYLENAME
350
E
  0
DICTIONARY
  5
D
102
{ACAD_REACTORS
330
C
102
}
330
C
100
AcDbDictionary
281
     1
  0
DICTIONARY
  5
1A
102
{ACAD_REACTORS
330
C
102
}
330
C
100
AcDbDictionary
281
     1
  3
Layout1
350
1E
  3
Layout2
350
26
  3
Model
350
22
  0
DICTIONARY
  5
17
102
{ACAD_REACTORS
330
C
102
}
330
C
100
AcDbDictionary
281
     1
  3
Standard
350
18
  0
DICTIONARY
  5
19
102
{ACAD_REACTORS
330
C
102
}
330
C
100
AcDbDictionary
281
     1
  0
ACDBDICTIONARYWDFLT
  5
E
102
{ACAD_REACTORS
330
C
102
}
330
C
100
AcDbDictionary
281
     1
  3
Normal
350
F
100
AcDbDictionaryWithDefault
340
F
  0
LAYOUT
  5
1E
102
{ACAD_REACTORS
330
1A
102
}
330
1A
100
AcDbPlotSettings
  1

  2
none_device
  4

  6

 40
0.0
 41
0.0
 42
0.0
 43
0.0
 44
0.0
 45
0.0
 46
0.0
 47
0.0
 48
0.0
 49
0.0
140
0.0
141
0.0
142
1.0
143
1.0
 70
   688
 72
     0
 73
     0
 74
     5
  7

 75
    16
147
1.0
148
0.0
149
0.0
100
AcDbLayout
  1
Layout1
 70
     1
 71
     1
 10
0.0
 20
0.0
 11
420.0
 21
297.0
 12
0.0
 22
0.0
 32
0.0
 14
1.0000000000E+20
 24
1.0000000000E+20
 34
1.0000000000E+20
 15
-1.0000000000E+20
 25
-1.0000000000E+20
 35
-1.0000000000E+20
146
0.0
 13
0.0
 23
0.0
 33
0.0
 16
1.0
 26
0.0
 36
0.0
 17
0.0
 27
1.0
 37
0.0
 76
     0
330
1B
  0
LAYOUT
  5
26
102
{ACAD_REACTORS
330
1A
102
}
330
1A
100
AcDbPlotSettings
  1

  2
none_device
  4

  6

 40
0.0
 41
0.0
 42
0.0
 43
0.0
 44
0.0
 45
0.0
 46
0.0
 47
0.0
 48
0.0
 49
0.0
140
0.0
141
0.0
142
1.0
143
1.0
 70
   688
 72
     0
 73
     0
 74
     5
  7

 75
    16
147
1.0
148
0.0
149
0.0
100
AcDbLayout
  1
Layout2
 70
     1
 71
     2
 10
0.0
 20
0.0
 11
0.0
 21
0.0
 12
0.0
 22
0.0
 32
0.0
 14
0.0
 24
0.0
 34
0.0
 15
0.0
 25
0.0
 35
0.0
146
0.0
 13
0.0
 23
0.0
 33
0.0
 16
1.0
 26
0.0
 36
0.0
 17
0.0
 27
1.0
 37
0.0
 76
     0
330
23
  0
LAYOUT
  5
22
102
{ACAD_REACTORS
330
1A
102
}
330
1A
100
AcDbPlotSettings
  1

  2
none_device
  4

  6

 40
0.0
 41
0.0
 42
0.0
 43
0.0
 44
0.0
 45
0.0
 46
0.0
 47
0.0
 48
0.0
 49
0.0
140
0.0
141
0.0
142
1.0
143
1.0
 70
  1712
 72
     0
 73
     0
 74
     0
  7

 75
     0
147
1.0
148
0.0
149
0.0
100
AcDbLayout
  1
Model
 70
     1
 71
     0
 10
0.0
 20
0.0
 11
210.0
 21
297.0
 12
0.0
 22
0.0
 32
0.0
 14
0.0
 24
0.0
 34
0.0
 15
210.0
 25
297.0
 35
0.0
146
0.0
 13
0.0
 23
0.0
 33
0.0
 16
1.0
 26
0.0
 36
0.0
 17
0.0
 27
1.0
 37
0.0
 76
     0
330
1F
331
29
  0
MLINESTYLE
  5
18
102
{ACAD_REACTORS
330
17
102
}
330
17
100
AcDbMlineStyle
  2
Standard
 70
     0
  3

 62
   256
 51
90.0
 52
90.0
 71
     2
 49
0.5
 62
   256
  6
BYLAYER
 49
-0.5
 62
   256
  6
BYLAYER
  0
ACDBPLACEHOLDER
  5
F
102
{ACAD_REACTORS
330
E
102
}
330
E
  0
ENDSEC
  0
EOF
