  0
SECTION
  2
HEADER
  9
$ACADVER
  1
AC1015
  9
$ACADMAINTVER
 70
     6
  9
$DWGCODEPAGE
  3
ANSI_1250
  9
$INSBASE
 10
0.0
 20
0.0
 30
0.0
  9
$EXTMIN
 10
0.0
 20
0.0
 30
0.0
  9
$EXTMAX
 10
210.0
 20
297.0
 30
0.0
  9
$LIMMIN
 10
0.0
 20
0.0
  9
$LIMMAX
 10
210.0
 20
297.0
  9
$ORTHOMODE
 70
     0
  9
$REGENMODE
 70
     1
  9
$FILLMODE
 70
     1
  9
$QTEXTMODE
 70
     0
  9
$MIRRTEXT
 70
     1
  9
$LTSCALE
 40
1.0
  9
$ATTMODE
 70
     1
  9
$TEXTSIZE
 40
2.5
  9
$TRACEWID
 40
1.0
  9
$TEXTSTYLE
  7
Standard
  9
$CLAYER
  8
0
  9
$CELTYPE
  6
ByLayer
  9
$CECOLOR
 62
   256
  9
$CELTSCALE
 40
1.0
  9
$DISPSILH
 70
     0
  9
$DIMSCALE
 40
1.0
  9
$DIMASZ
 40
2.5
  9
$DIMEXO
 40
0.0
  9
$DIMDLI
 40
3.75
  9
$DIMRND
 40
0.0
  9
$DIMDLE
 40
0.0
  9
$DIMEXE
 40
1.0
  9
$DIMTP
 40
0.0
  9
$DIMTM
 40
0.0
  9
$DIMTXT
 40
2.5
  9
$DIMCEN
 40
2.5
  9
$DIMTSZ
 40
0.0
  9
$DIMTOL
 70
     0
  9
$DIMLIM
 70
     0
  9
$DIMTIH
 70
     1
  9
$DIMTOH
 70
     1
  9
$DIMSE1
 70
     0
  9
$DIMSE2
 70
     0
  9
$DIMTAD
 70
     1
  9
$DIMZIN
 70
     1
  9
$DIMBLK
  1

  9
$DIMASO
 70
     1
  9
$DIMSHO
 70
     1
  9
$DIMPOST
  1

  9
$DIMAPOST
  1

  9
$DIMALT
 70
     0
  9
$DIMALTD
 70
     3
  9
$DIMALTF
 40
0.0393700787
  9
$DIMLFAC
 40
1.0
  9
$DIMTOFL
 70
     1
  9
$DIMTVP
 40
0.0
  9
$DIMTIX
 70
     0
  9
$DIMSOXD
 70
     0
  9
$DIMSAH
 70
     0
  9
$DIMBLK1
  1

  9
$DIMBLK2
  1

  9
$DIMSTYLE
  2
ISO-25
  9
$DIMCLRD
 70
     0
  9
$DIMCLRE
 70
     0
  9
$DIMCLRT
 70
     0
  9
$DIMTFAC
 40
1.0
  9
$DIMGAP
 40
1.524
  9
$DIMJUST
 70
     0
  9
$DIMSD1
 70
     0
  9
$DIMSD2
 70
     0
  9
$DIMTOLJ
 70
     0
  9
$DIMTZIN
 70
     1
  9
$DIMALTZ
 70
     0
  9
$DIMALTTZ
 70
     0
  9
$DIMUPT
 70
     0
  9
$DIMDEC
 70
     2
  9
$DIMTDEC
 70
     2
  9
$DIMALTU
 70
     2
  9
$DIMALTTD
 70
     3
  9
$DIMTXSTY
  7
Standard
  9
$DIMAUNIT
 70
     0
  9
$DIMADEC
 70
     2
  9
$DIMALTRND
 40
0.0
  9
$DIMAZIN
 70
     0
  9
$DIMDSEP
 70
    44
  9
$DIMATFIT
 70
     3
  9
$DIMFRAC
 70
     0
  9
$DIMLDRBLK
  1

  9
$DIMLUNIT
 70
     2
  9
$DIMLWD
 70
    -2
  9
$DIMLWE
 70
    -2
  9
$DIMTMOVE
 70
     0
  9
$LUNITS
 70
     2
  9
$LUPREC
 70
     0
  9
$SKETCHINC
 40
1.0
  9
$FILLETRAD
 40
10.0
  9
$AUNITS
 70
     0
  9
$AUPREC
 70
     2
  9
$MENU
  1
.
  9
$ELEVATION
 40
0.0
  9
$PELEVATION
 40
0.0
  9
$THICKNESS
 40
0.0
  9
$LIMCHECK
 70
     0
  9
$CHAMFERA
 40
10.0
  9
$CHAMFERB
 40
10.0
  9
$CHAMFERC
 40
20.0
  9
$CHAMFERD
 40
0.0
  9
$SKPOLY
 70
     0
  9
$TDCREATE
 40
2455715.566851111
  9
$TDUCREATE
 40
2455715.483517778
  9
$TDUPDATE
 40
2455715.566851123
  9
$TDUUPDATE
 40
2455715.483517789
  9
$TDINDWG
 40
0.0000000116
  9
$TDUSRTIMER
 40
0.0000000116
  9
$USRTIMER
 70
     1
  9
$ANGBASE
 50
0.0
  9
$ANGDIR
 70
     0
  9
$PDMODE
 70
     0
  9
$PDSIZE
 40
-1.0
  9
$PLINEWID
 40
0.0
  9
$SPLFRAME
 70
     0
  9
$SPLINETYPE
 70
     6
  9
$SPLINESEGS
 70
     8
  9
$HANDSEED
  5
250
  9
$SURFTAB1
 70
     6
  9
$SURFTAB2
 70
     6
  9
$SURFTYPE
 70
     6
  9
$SURFU
 70
     6
  9
$SURFV
 70
     6
  9
$UCSBASE
  2

  9
$UCSNAME
  2

  9
$UCSORG
 10
0.0
 20
0.0
 30
0.0
  9
$UCSXDIR
 10
1.0
 20
0.0
 30
0.0
  9
$UCSYDIR
 10
0.0
 20
1.0
 30
0.0
  9
$UCSORTHOREF
  2

  9
$UCSORTHOVIEW
 70
     0
  9
$UCSORGTOP
 10
0.0
 20
0.0
 30
0.0
  9
$UCSORGBOTTOM
 10
0.0
 20
0.0
 30
0.0
  9
$UCSORGLEFT
 10
0.0
 20
0.0
 30
0.0
  9
$UCSORGRIGHT
 10
0.0
 20
0.0
 30
0.0
  9
$UCSORGFRONT
 10
0.0
 20
0.0
 30
0.0
  9
$UCSORGBACK
 10
0.0
 20
0.0
 30
0.0
  9
$PUCSBASE
  2

  9
$PUCSNAME
  2

  9
$PUCSORG
 10
0.0
 20
0.0
 30
0.0
  9
$PUCSXDIR
 10
1.0
 20
0.0
 30
0.0
  9
$PUCSYDIR
 10
0.0
 20
1.0
 30
0.0
  9
$PUCSORTHOREF
  2

  9
$PUCSORTHOVIEW
 70
     0
  9
$PUCSORGTOP
 10
0.0
 20
0.0
 30
0.0
  9
$PUCSORGBOTTOM
 10
0.0
 20
0.0
 30
0.0
  9
$PUCSORGLEFT
 10
0.0
 20
0.0
 30
0.0
  9
$PUCSORGRIGHT
 10
0.0
 20
0.0
 30
0.0
  9
$PUCSORGFRONT
 10
0.0
 20
0.0
 30
0.0
  9
$PUCSORGBACK
 10
0.0
 20
0.0
 30
0.0
  9
$USERI1
 70
     0
  9
$USERI2
 70
     0
  9
$USERI3
 70
     0
  9
$USERI4
 70
     0
  9
$USERI5
 70
     0
  9
$USERR1
 40
0.0
  9
$USERR2
 40
0.0
  9
$USERR3
 40
0.0
  9
$USERR4
 40
0.0
  9
$USERR5
 40
0.0
  9
$WORLDVIEW
 70
     1
  9
$SHADEDGE
 70
     3
  9
$SHADEDIF
 70
    70
  9
$TILEMODE
 70
     1
  9
$MAXACTVP
 70
    64
  9
$PINSBASE
 10
0.0
 20
0.0
 30
0.0
  9
$PLIMCHECK
 70
     0
  9
$PEXTMIN
 10
1.0000000000E+20
 20
1.0000000000E+20
 30
1.0000000000E+20
  9
$PEXTMAX
 10
-1.0000000000E+20
 20
-1.0000000000E+20
 30
-1.0000000000E+20
  9
$PLIMMIN
 10
0.0
 20
0.0
  9
$PLIMMAX
 10
420.0
 20
297.0
  9
$UNITMODE
 70
     0
  9
$VISRETAIN
 70
     1
  9
$PLINEGEN
 70
     0
  9
$PSLTSCALE
 70
     1
  9
$TREEDEPTH
 70
  3020
  9
$CMLSTYLE
  2
Standard
  9
$CMLJUST
 70
     0
  9
$CMLSCALE
 40
20.0
  9
$PROXYGRAPHICS
 70
     1
  9
$MEASUREMENT
 70
     1
  9
$CELWEIGHT
370
    -1
  9
$ENDCAPS
280
     0
  9
$JOINSTYLE
280
     0
  9
$LWDISPLAY
290
     1
  9
$INSUNITS
 70
     4
  9
$HYPERLINKBASE
  1

  9
$STYLESHEET
  1

  9
$XEDIT
290
     1
  9
$CEPSNTYPE
380
     0
  9
$PSTYLEMODE
290
     1
  9
$FINGERPRINTGUID
  2
{45472EF5-7457-40AB-8F02-93207C02E046}
  9
$VERSIONGUID
  2
{FAEB1C32-E019-11D5-929B-00C0DF256EC4}
  9
$EXTNAMES
290
     1
  9
$PSVPSCALE
 40
0.0
  9
$OLESTARTUP
290
     0
  0
ENDSEC
  0
SECTION
  2
CLASSES
  0
CLASS
  1
ACDBDICTIONARYWDFLT
  2
AcDbDictionaryWithDefault
  3
ObjectDBX Classes
 90
        0
280
     0
281
     0
  0
CLASS
  1
VISUALSTYLE
  2
AcDbVisualStyle
  3
ObjectDBX Classes
 90
     4095
280
     0
281
     0
  0
CLASS
  1
MATERIAL
  2
AcDbMaterial
  3
ObjectDBX Classes
 90
     1153
280
     0
281
     0
  0
CLASS
  1
ACDBPLACEHOLDER
  2
AcDbPlaceHolder
  3
ObjectDBX Classes
 90
        0
280
     0
281
     0
  0
CLASS
  1
LAYOUT
  2
AcDbLayout
  3
ObjectDBX Classes
 90
        0
280
     0
281
     0
  0
ENDSEC
  0
SECTION
  2
TABLES
  0
TABLE
  2
VPORT
  5
8
330
0
100
AcDbSymbolTable
 70
     1
  0
VPORT
  5
29
330
8
100
AcDbSymbolTableRecord
100
AcDbViewportTableRecord
  2
*Active
 70
     0
 10
0.0
 20
0.0
 11
1.0
 21
1.0
 12
105.0
 22
148.5
 13
0.0
 23
0.0
 14
10.0
 24
10.0
 15
10.0
 25
10.0
 16
0.0
 26
0.0
 36
1.0
 17
0.0
 27
0.0
 37
0.0
 40
297.0
 41
0.7070707071
 42
50.0
 43
0.0
 44
0.0
 50
0.0
 51
0.0
 71
     0
 72
  2000
 73
     1
 74
     3
 75
     0
 76
     0
 77
     0
 78
     0
281
     0
 65
     1
110
0.0
120
0.0
130
0.0
111
1.0
121
0.0
131
0.0
112
0.0
122
1.0
132
0.0
 79
     0
146
0.0
  0
ENDTAB
  0
TABLE
  2
LTYPE
  5
5
330
0
100
AcDbSymbolTable
 70
     6
  0
LTYPE
  5
14
330
5
100
AcDbSymbolTableRecord
100
AcDbLinetypeTableRecord
  2
ByBlock
 70
     0
  3

 72
    65
 73
     0
 40
0.0
  0
LTYPE
  5
15
330
5
100
AcDbSymbolTableRecord
100
AcDbLinetypeTableRecord
  2
ByLayer
 70
     0
  3

 72
    65
 73
     0
 40
0.0
  0
LTYPE
  5
16
330
5
100
AcDbSymbolTableRecord
100
AcDbLinetypeTableRecord
  2
Continuous
 70
     0
  3
Solid line
 72
    65
 73
     0
 40
0.0
  0
LTYPE
  5
3F
330
5
100
AcDbSymbolTableRecord
100
AcDbLinetypeTableRecord
  2
HIDDEN
 70
     0
  3
Hidden __ __ __ __ __ __ __ __ __ __ __ __ __ __
 72
    65
 73
     2
 40
1.905
 49
1.27
 74
     0
 49
-0.635
 74
     0
  0
LTYPE
  5
40
330
5
100
AcDbSymbolTableRecord
100
AcDbLinetypeTableRecord
  2
PHANTOM
 70
     0
  3
Phantom ______  __  __  ______  __  __  ______
 72
    65
 73
     6
 40
12.7
 49
6.35
 74
     0
 49
-1.27
 74
     0
 49
1.27
 74
     0
 49
-1.27
 74
     0
 49
1.27
 74
     0
 49
-1.27
 74
     0
  0
LTYPE
  5
41
330
5
100
AcDbSymbolTableRecord
100
AcDbLinetypeTableRecord
  2
CENTER
 70
     0
  3
Center ____ _ ____ _ ____ _ ____ _ ____ _ ____
 72
    65
 73
     4
 40
10.16
 49
6.35
 74
     0
 49
-1.27
 74
     0
 49
1.27
 74
     0
 49
-1.27
 74
     0
  0
LTYPE
  5
42
330
5
100
AcDbSymbolTableRecord
100
AcDbLinetypeTableRecord
  2
CENTERX2
 70
     0
  3
Center (2x) ________  __  ________  __  _____
 72
    65
 73
     4
 40
20.32
 49
12.7
 74
     0
 49
-2.54
 74
     0
 49
2.54
 74
     0
 49
-2.54
 74
     0
  0
LTYPE
  5
43
330
5
100
AcDbSymbolTableRecord
100
AcDbLinetypeTableRecord
  2
DOT2
 70
     0
  3
Dot (.5x) ........................................
 72
    65
 73
     2
 40
0.635
 49
0.0
 74
     0
 49
-0.635
 74
     0
  0
ENDTAB
  0
TABLE
  2
LAYER
  5
2
330
0
100
AcDbSymbolTable
 70
    26
  0
LAYER
  5
10
330
2
100
AcDbSymbolTableRecord
100
AcDbLayerTableRecord
  2
0
 70
     0
 62
     7
  6
Continuous
370
    -3
390
F
  0
LAYER
  5
44
330
2
100
AcDbSymbolTableRecord
100
AcDbLayerTableRecord
  2
SLD-0
 70
     0
 62
     1
  6
Continuous
370
    -3
390
F
  0
LAYER
  5
45
330
2
100
AcDbSymbolTableRecord
100
AcDbLayerTableRecord
  2
POČÁTEK
 70
     0
 62
    34
  6
Continuous
370
    -3
390
F
  0
LAYER
  5
46
330
2
100
AcDbSymbolTableRecord
100
AcDbLayerTableRecord
  2
OBRYS
 70
     0
 62
     7
  6
Continuous
370
    15
390
F
  0
LAYER
  5
47
330
2
100
AcDbSymbolTableRecord
100
AcDbLayerTableRecord
  2
SRAFY
 70
     0
 62
     2
  6
Continuous
370
    -1
390
F
  0
LAYER
  5
48
330
2
100
AcDbSymbolTableRecord
100
AcDbLayerTableRecord
  2
KOTY
 70
     0
 62
    82
  6
Continuous
370
    -3
390
F
  0
LAYER
  5
49
330
2
100
AcDbSymbolTableRecord
100
AcDbLayerTableRecord
  2
OSY
 70
     0
 62
     1
  6
CENTERX2
370
    -3
390
F
  0
LAYER
  5
4A
330
2
100
AcDbSymbolTableRecord
100
AcDbLayerTableRecord
  2
REZY
 70
     0
 62
     1
  6
CENTERX2
370
    -3
390
F
  0
LAYER
  5
4B
330
2
100
AcDbSymbolTableRecord
100
AcDbLayerTableRecord
  2
TENKA
 70
     0
 62
   131
  6
Continuous
370
    -3
390
F
  0
LAYER
  5
4C
330
2
100
AcDbSymbolTableRecord
100
AcDbLayerTableRecord
  2
TEXT
 70
     0
 62
    40
  6
Continuous
370
    -3
390
F
  0
LAYER
  5
4D
330
2
100
AcDbSymbolTableRecord
100
AcDbLayerTableRecord
  2
STŘEDOVÉ
 70
     0
 62
     1
  6
CENTERX2
370
    -3
390
F
  0
LAYER
  5
4E
330
2
100
AcDbSymbolTableRecord
100
AcDbLayerTableRecord
  2
OPRACOVÁNÍ
 70
     0
 62
   212
  6
Continuous
370
    -3
390
F
  0
LAYER
  5
4F
330
2
100
AcDbSymbolTableRecord
100
AcDbLayerTableRecord
  2
TABULKA
 70
     0
 62
    41
  6
Continuous
370
    -1
390
F
  0
LAYER
  5
50
330
2
100
AcDbSymbolTableRecord
100
AcDbLayerTableRecord
  2
GEOMETRICKÉ
 70
     0
 62
   212
  6
Continuous
370
    -3
390
F
  0
LAYER
  5
51
330
2
100
AcDbSymbolTableRecord
100
AcDbLayerTableRecord
  2
ČÁRY
 70
     0
 62
     2
  6
Continuous
370
    -3
390
F
  0
LAYER
  5
52
330
2
100
AcDbSymbolTableRecord
100
AcDbLayerTableRecord
  2
POPIS
 70
     0
 62
     3
  6
Continuous
370
    -1
390
F
  0
LAYER
  5
53
330
2
100
AcDbSymbolTableRecord
100
AcDbLayerTableRecord
  2
ZÁKLADNA
 70
     0
 62
   212
  6
Continuous
370
    -1
390
F
  0
LAYER
  5
54
330
2
100
AcDbSymbolTableRecord
100
AcDbLayerTableRecord
  2
STŘEDY
 70
     0
 62
     1
  6
CENTERX2
370
    -3
390
F
  0
LAYER
  5
55
330
2
100
AcDbSymbolTableRecord
100
AcDbLayerTableRecord
  2
KOLÍK
 70
     0
 62
     9
  6
Continuous
370
    -3
390
F
  0
LAYER
  5
56
330
2
100
AcDbSymbolTableRecord
100
AcDbLayerTableRecord
  2
PŘERUŠENÍ
 70
     0
 62
     4
  6
PHANTOM
370
    -3
390
F
  0
LAYER
  5
57
330
2
100
AcDbSymbolTableRecord
100
AcDbLayerTableRecord
  2
DETAIL
 70
     0
 62
     6
  6
Continuous
370
    -3
390
F
  0
LAYER
  5
58
330
2
100
AcDbSymbolTableRecord
100
AcDbLayerTableRecord
  2
ZÁVIT
 70
     0
 62
     2
  6
Continuous
370
    -3
390
F
  0
LAYER
  5
59
330
2
100
AcDbSymbolTableRecord
100
AcDbLayerTableRecord
  2
HRANICE
 70
     0
 62
     6
  6
Continuous
370
    -1
390
F
  0
LAYER
  5
5A
330
2
100
AcDbSymbolTableRecord
100
AcDbLayerTableRecord
  2
LOMENÉ
 70
     0
 62
     6
  6
Continuous
370
    -1
390
F
  0
LAYER
  5
5B
330
2
100
AcDbSymbolTableRecord
100
AcDbLayerTableRecord
  2
TEČNÉ
 70
     0
 62
     6
  6
Continuous
370
    -3
390
F
  0
LAYER
  5
5C
330
2
100
AcDbSymbolTableRecord
100
AcDbLayerTableRecord
  2
SKRYTE
 70
     0
 62
     4
  6
Continuous
370
    -3
390
F
  0
ENDTAB
  0
TABLE
  2
STYLE
  5
3
330
0
100
AcDbSymbolTable
 70
     2
  0
STYLE
  5
11
330
3
100
AcDbSymbolTableRecord
100
AcDbTextStyleTableRecord
  2
Standard
 70
     0
 40
0.0
 41
1.0
 50
0.0
 71
     0
 42
2.5
  3
txt
  4

  0
STYLE
  5
5D
330
3
100
AcDbSymbolTableRecord
100
AcDbTextStyleTableRecord
  2
SLDTEXTSTYLE0
 70
     0
 40
0.0
 41
0.75
 50
0.0
 71
     0
 42
0.2
  3
TXT
  4

  0
ENDTAB
  0
TABLE
  2
VIEW
  5
6
330
0
100
AcDbSymbolTable
 70
     0
  0
ENDTAB
  0
TABLE
  2
UCS
  5
7
330
0
100
AcDbSymbolTable
 70
     0
  0
ENDTAB
  0
TABLE
  2
APPID
  5
9
330
0
100
AcDbSymbolTable
 70
     1
  0
APPID
  5
12
330
9
100
AcDbSymbolTableRecord
100
AcDbRegAppTableRecord
  2
ACAD
 70
     0
  0
ENDTAB
  0
TABLE
  2
DIMSTYLE
  5
A
330
0
100
AcDbSymbolTable
 70
     4
100
AcDbDimStyleTable
  0
DIMSTYLE
105
27
330
A
100
AcDbSymbolTableRecord
100
AcDbDimStyleTableRecord
  2
ISO-25
 70
     0
 41
2.5
 42
0.625
 43
3.75
 44
1.25
 73
     0
 74
     0
 77
     1
 78
     8
140
2.5
141
2.5
143
0.0393700787
147
0.625
171
     3
172
     1
178
     0
271
     2
272
     2
274
     3
278
    44
283
     0
284
     8
340
11
  0
DIMSTYLE
105
D7
102
{ACAD_REACTORS
330
D6
330
228
330
232
102
}
330
A
100
AcDbSymbolTableRecord
100
AcDbDimStyleTableRecord
  2
SLDDIMSTYLE0
 70
     0
 41
2.5
 44
0.0
 45
0.000000001
 73
     0
 74
     0
 77
     1
 78
    12
 79
     3
140
2.5
147
0.625
173
     1
178
     0
271
     1
272
     2
276
     2
284
    12
340
5D
  0
DIMSTYLE
105
E2
102
{ACAD_REACTORS
330
E1
330
EC
330
F6
330
10E
330
194
330
19E
330
1A8
330
1B2
330
1BC
330
23C
330
246
102
}
330
A
100
AcDbSymbolTableRecord
100
AcDbDimStyleTableRecord
  2
SLDDIMSTYLE1
 70
     0
 41
2.5
 44
0.0
 45
0.000000001
 73
     0
 74
     0
 77
     1
 78
    12
 79
     3
140
2.5
147
0.625
173
     1
178
     0
271
     0
272
     2
276
     2
284
    12
340
5D
  0
DIMSTYLE
105
102
102
{ACAD_REACTORS
330
101
330
188
330
21C
102
}
330
A
100
AcDbSymbolTableRecord
100
AcDbDimStyleTableRecord
  2
SLDDIMSTYLE2
 70
     0
 41
2.5
 44
0.0
 45
0.000000001
 73
     0
 74
     0
 77
     1
 78
    12
 79
     3
140
2.5
147
0.625
172
     1
173
     1
178
     0
271
     0
272
     2
276
     2
284
    12
289
     0
340
5D
  0
ENDTAB
  0
TABLE
  2
BLOCK_RECORD
  5
1
330
0
100
AcDbSymbolTable
 70
    18
  0
BLOCK_RECORD
  5
1F
330
1
100
AcDbSymbolTableRecord
100
AcDbBlockTableRecord
  2
*Model_Space
340
22
  0
BLOCK_RECORD
  5
1B
330
1
100
AcDbSymbolTableRecord
100
AcDbBlockTableRecord
  2
*Paper_Space
340
1E
  0
BLOCK_RECORD
  5
23
330
1
100
AcDbSymbolTableRecord
100
AcDbBlockTableRecord
  2
*Paper_Space0
340
26
  0
BLOCK_RECORD
  5
D8
330
1
100
AcDbSymbolTableRecord
100
AcDbBlockTableRecord
  2
*D1
340
0
  0
BLOCK_RECORD
  5
E3
330
1
100
AcDbSymbolTableRecord
100
AcDbBlockTableRecord
  2
*D2
340
0
  0
BLOCK_RECORD
  5
ED
330
1
100
AcDbSymbolTableRecord
100
AcDbBlockTableRecord
  2
*D3
340
0
  0
BLOCK_RECORD
  5
F7
330
1
100
AcDbSymbolTableRecord
100
AcDbBlockTableRecord
  2
*D4
340
0
  0
BLOCK_RECORD
  5
103
330
1
100
AcDbSymbolTableRecord
100
AcDbBlockTableRecord
  2
*D5
340
0
  0
BLOCK_RECORD
  5
10F
330
1
100
AcDbSymbolTableRecord
100
AcDbBlockTableRecord
  2
*D6
340
0
  0
BLOCK_RECORD
  5
189
330
1
100
AcDbSymbolTableRecord
100
AcDbBlockTableRecord
  2
*D7
340
0
  0
BLOCK_RECORD
  5
195
330
1
100
AcDbSymbolTableRecord
100
AcDbBlockTableRecord
  2
*D8
340
0
  0
BLOCK_RECORD
  5
19F
330
1
100
AcDbSymbolTableRecord
100
AcDbBlockTableRecord
  2
*D9
340
0
  0
BLOCK_RECORD
  5
1A9
330
1
100
AcDbSymbolTableRecord
100
AcDbBlockTableRecord
  2
*D10
340
0
  0
BLOCK_RECORD
  5
1B3
330
1
100
AcDbSymbolTableRecord
100
AcDbBlockTableRecord
  2
*D11
340
0
  0
BLOCK_RECORD
  5
1BD
330
1
100
AcDbSymbolTableRecord
100
AcDbBlockTableRecord
  2
*D12
340
0
  0
BLOCK_RECORD
  5
21D
330
1
100
AcDbSymbolTableRecord
100
AcDbBlockTableRecord
  2
*D13
340
0
  0
BLOCK_RECORD
  5
229
330
1
100
AcDbSymbolTableRecord
100
AcDbBlockTableRecord
  2
*D14
340
0
  0
BLOCK_RECORD
  5
233
330
1
100
AcDbSymbolTableRecord
100
AcDbBlockTableRecord
  2
*D15
340
0
  0
BLOCK_RECORD
  5
23D
330
1
100
AcDbSymbolTableRecord
100
AcDbBlockTableRecord
  2
*D16
340
0
  0
BLOCK_RECORD
  5
247
330
1
100
AcDbSymbolTableRecord
100
AcDbBlockTableRecord
  2
*D17
340
0
  0
ENDTAB
  0
ENDSEC
  0
SECTION
  2
BLOCKS
  0
BLOCK
  5
20
330
1F
100
AcDbEntity
  8
0
100
AcDbBlockBegin
  2
*Model_Space
 70
     0
 10
0.0
 20
0.0
 30
0.0
  3
*Model_Space
  1

  0
ENDBLK
  5
21
330
1F
100
AcDbEntity
  8
0
100
AcDbBlockEnd
  0
BLOCK
  5
1C
330
1B
100
AcDbEntity
 67
     1
  8
0
100
AcDbBlockBegin
  2
*Paper_Space
 70
     0
 10
0.0
 20
0.0
 30
0.0
  3
*Paper_Space
  1

  0
ENDBLK
  5
1D
330
1B
100
AcDbEntity
 67
     1
  8
0
100
AcDbBlockEnd
  0
BLOCK
  5
24
330
23
100
AcDbEntity
  8
0
100
AcDbBlockBegin
  2
*Paper_Space0
 70
     0
 10
0.0
 20
0.0
 30
0.0
  3
*Paper_Space0
  1

  0
ENDBLK
  5
25
330
23
100
AcDbEntity
  8
0
100
AcDbBlockEnd
  0
BLOCK
  5
D9
330
D8
100
AcDbEntity
  8
0
100
AcDbBlockBegin
  2
*D1
 70
     1
 10
0.0
 20
0.0
 30
0.0
  3
*D1
  1

  0
SOLID
  5
DB
330
D8
100
AcDbEntity
  8
KOTY
100
AcDbTrace
 10
29.5615381224
 20
261.1149262097
 30
0.0
 11
29.1769227378
 21
258.6149262097
 31
0.0
 12
29.946153507
 22
258.6149262097
 32
0.0
 13
29.946153507
 23
258.6149262097
 33
0.0
  0
SOLID
  5
DC
330
D8
100
AcDbEntity
  8
KOTY
100
AcDbTrace
 10
29.5615381224
 20
205.6149262097
 30
0.0
 11
29.946153507
 21
208.1149262097
 31
0.0
 12
29.1769227378
 22
208.1149262097
 32
0.0
 13
29.1769227378
 23
208.1149262097
 33
0.0
  0
LINE
  5
DD
330
D8
100
AcDbEntity
  8
KOTY
100
AcDbLine
 10
36.2615381224
 20
261.1149262097
 30
0.0
 11
28.5615381224
 21
261.1149262097
 31
0.0
  0
LINE
  5
DE
330
D8
100
AcDbEntity
  8
KOTY
100
AcDbLine
 10
36.2615381224
 20
205.6149262097
 30
0.0
 11
28.5615381224
 21
205.6149262097
 31
0.0
  0
LINE
  5
DF
330
D8
100
AcDbEntity
  8
KOTY
100
AcDbLine
 10
29.5615381224
 20
261.1149262097
 30
0.0
 11
29.5615381224
 21
205.6149262097
 31
0.0
  0
MTEXT
  5
E0
330
D8
100
AcDbEntity
  8
KOTY
100
AcDbMText
 10
26.3388688312
 20
229.1166624297
 30
-49.9
 40
2.5
 41
0.0
 71
     1
 72
     1
  1
55,5
  7
SLDTEXTSTYLE0
 11
-7.044195017643634E-15
 21
1.0
 31
0.0
 73
     1
 44
1.0
  0
ENDBLK
  5
DA
330
D8
100
AcDbEntity
  8
0
100
AcDbBlockEnd
  0
BLOCK
  5
E4
330
E3
100
AcDbEntity
  8
0
100
AcDbBlockBegin
  2
*D2
 70
     1
 10
0.0
 20
0.0
 30
0.0
  3
*D2
  1

  0
SOLID
  5
E6
330
E3
100
AcDbEntity
  8
KOTY
100
AcDbTrace
 10
35.5615381224
 20
193.6149262097
 30
0.0
 11
38.0615381224
 21
193.2303108251
 31
0.0
 12
38.0615381224
 22
193.9995415943
 32
0.0
 13
38.0615381224
 23
193.9995415943
 33
0.0
  0
SOLID
  5
E7
330
E3
100
AcDbEntity
  8
KOTY
100
AcDbTrace
 10
64.5615381224
 20
193.6149262097
 30
0.0
 11
62.0615381224
 21
193.9995415943
 31
0.0
 12
62.0615381224
 22
193.2303108251
 32
0.0
 13
62.0615381224
 23
193.2303108251
 33
0.0
  0
LINE
  5
E8
330
E3
100
AcDbEntity
  8
KOTY
100
AcDbLine
 10
35.5615381224
 20
206.3149262097
 30
0.0
 11
35.5615381224
 21
192.6149262097
 31
0.0
  0
LINE
  5
E9
330
E3
100
AcDbEntity
  8
KOTY
100
AcDbLine
 10
64.5615381224
 20
206.1149262097
 30
0.0
 11
64.5615381224
 21
192.6149262097
 31
0.0
  0
LINE
  5
EA
330
E3
100
AcDbEntity
  8
KOTY
100
AcDbLine
 10
35.5615381224
 20
193.6149262097
 30
0.0
 11
64.5615381224
 21
193.6149262097
 31
0.0
  0
MTEXT
  5
EB
330
E3
100
AcDbEntity
  8
KOTY
100
AcDbMText
 10
47.1986907123
 20
196.837595501
 30
-49.9
 40
2.5
 41
0.0
 71
     1
 72
     1
  1
29
  7
SLDTEXTSTYLE0
 73
     1
 44
1.0
  0
ENDBLK
  5
E5
330
E3
100
AcDbEntity
  8
0
100
AcDbBlockEnd
  0
BLOCK
  5
EE
330
ED
100
AcDbEntity
  8
0
100
AcDbBlockBegin
  2
*D3
 70
     1
 10
0.0
 20
0.0
 30
0.0
  3
*D3
  1

  0
SOLID
  5
F0
330
ED
100
AcDbEntity
  8
KOTY
100
AcDbTrace
 10
42.5615381224
 20
199.6149262097
 30
0.0
 11
45.0615381224
 21
199.2303108251
 31
0.0
 12
45.0615381224
 22
199.9995415943
 32
0.0
 13
45.0615381224
 23
199.9995415943
 33
0.0
  0
SOLID
  5
F1
330
ED
100
AcDbEntity
  8
KOTY
100
AcDbTrace
 10
64.5615381224
 20
199.6149262097
 30
0.0
 11
62.0615381224
 21
199.9995415943
 31
0.0
 12
62.0615381224
 22
199.2303108251
 32
0.0
 13
62.0615381224
 23
199.2303108251
 33
0.0
  0
LINE
  5
F2
330
ED
100
AcDbEntity
  8
KOTY
100
AcDbLine
 10
42.5615381224
 20
207.3649262097
 30
0.0
 11
42.5615381224
 21
198.6149262097
 31
0.0
  0
LINE
  5
F3
330
ED
100
AcDbEntity
  8
KOTY
100
AcDbLine
 10
64.5615381224
 20
206.1149262097
 30
0.0
 11
64.5615381224
 21
198.6149262097
 31
0.0
  0
LINE
  5
F4
330
ED
100
AcDbEntity
  8
KOTY
100
AcDbLine
 10
42.5615381224
 20
199.6149262097
 30
0.0
 11
64.5615381224
 21
199.6149262097
 31
0.0
  0
MTEXT
  5
F5
330
ED
100
AcDbEntity
  8
KOTY
100
AcDbMText
 10
50.6986907123
 20
202.837595501
 30
-49.9
 40
2.5
 41
0.0
 71
     1
 72
     1
  1
22
  7
SLDTEXTSTYLE0
 73
     1
 44
1.0
  0
ENDBLK
  5
EF
330
ED
100
AcDbEntity
  8
0
100
AcDbBlockEnd
  0
BLOCK
  5
F8
330
F7
100
AcDbEntity
  8
0
100
AcDbBlockBegin
  2
*D4
 70
     1
 10
0.0
 20
0.0
 30
0.0
  3
*D4
  1

  0
SOLID
  5
FA
330
F7
100
AcDbEntity
  8
KOTY
100
AcDbTrace
 10
42.5615381224
 20
199.6149262097
 30
0.0
 11
40.0615381224
 21
199.9995415943
 31
0.0
 12
40.0615381224
 22
199.2303108251
 32
0.0
 13
40.0615381224
 23
199.2303108251
 33
0.0
  0
SOLID
  5
FB
330
F7
100
AcDbEntity
  8
KOTY
100
AcDbTrace
 10
35.5615381224
 20
199.6149262097
 30
0.0
 11
38.0615381224
 21
199.2303108251
 31
0.0
 12
38.0615381224
 22
199.9995415943
 32
0.0
 13
38.0615381224
 23
199.9995415943
 33
0.0
  0
LINE
  5
FC
330
F7
100
AcDbEntity
  8
KOTY
100
AcDbLine
 10
42.5615381224
 20
207.3649262097
 30
0.0
 11
42.5615381224
 21
198.6149262097
 31
0.0
  0
LINE
  5
FD
330
F7
100
AcDbEntity
  8
KOTY
100
AcDbLine
 10
35.5615381224
 20
206.3149262097
 30
0.0
 11
35.5615381224
 21
198.6149262097
 31
0.0
  0
LINE
  5
FE
330
F7
100
AcDbEntity
  8
KOTY
100
AcDbLine
 10
42.5615381224
 20
199.6149262097
 30
0.0
 11
35.5615381224
 21
199.6149262097
 31
0.0
  0
LINE
  5
FF
330
F7
100
AcDbEntity
  8
KOTY
100
AcDbLine
 10
35.5615381224
 20
199.6149262097
 30
0.0
 11
25.2559557439
 21
199.6149262097
 31
0.0
  0
MTEXT
  5
100
330
F7
100
AcDbEntity
  8
KOTY
100
AcDbMText
 10
25.2559557439
 20
202.837595501
 30
-49.9
 40
2.5
 41
0.0
 71
     1
 72
     1
  1
7
  7
SLDTEXTSTYLE0
 73
     1
 44
1.0
  0
ENDBLK
  5
F9
330
F7
100
AcDbEntity
  8
0
100
AcDbBlockEnd
  0
BLOCK
  5
104
330
103
100
AcDbEntity
  8
0
100
AcDbBlockBegin
  2
*D5
 70
     1
 10
0.0
 20
0.0
 30
0.0
  3
*D5
  1

  0
SOLID
  5
106
330
103
100
AcDbEntity
  8
KOTY
100
AcDbTrace
 10
46.0615381224
 20
267.1149262097
 30
0.0
 11
43.5615381224
 21
267.4995415943
 31
0.0
 12
43.5615381224
 22
266.7303108251
 32
0.0
 13
43.5615381224
 23
266.7303108251
 33
0.0
  0
SOLID
  5
107
330
103
100
AcDbEntity
  8
KOTY
100
AcDbTrace
 10
61.0615381224
 20
267.1149262097
 30
0.0
 11
63.5615381224
 21
266.7303108251
 31
0.0
 12
63.5615381224
 22
267.4995415943
 32
0.0
 13
63.5615381224
 23
267.4995415943
 33
0.0
  0
LINE
  5
108
330
103
100
AcDbEntity
  8
KOTY
100
AcDbLine
 10
46.0615381224
 20
259.3649262097
 30
0.0
 11
46.0615381224
 21
268.1149262097
 31
0.0
  0
LINE
  5
109
330
103
100
AcDbEntity
  8
KOTY
100
AcDbLine
 10
61.0615381224
 20
259.3649262097
 30
0.0
 11
61.0615381224
 21
268.1149262097
 31
0.0
  0
LINE
  5
10A
330
103
100
AcDbEntity
  8
KOTY
100
AcDbLine
 10
46.0615381224
 20
267.1149262097
 30
0.0
 11
41.2538458147
 21
267.1149262097
 31
0.0
  0
LINE
  5
10B
330
103
100
AcDbEntity
  8
KOTY
100
AcDbLine
 10
46.0615381224
 20
267.1149262097
 30
0.0
 11
61.0615381224
 21
267.1149262097
 31
0.0
  0
LINE
  5
10C
330
103
100
AcDbEntity
  8
KOTY
100
AcDbLine
 10
61.0615381224
 20
267.1149262097
 30
0.0
 11
65.8692304301
 21
267.1149262097
 31
0.0
  0
MTEXT
  5
10D
330
103
100
AcDbEntity
  8
KOTY
100
AcDbMText
 10
50.6986907123
 20
270.337595501
 30
-49.9
 40
2.5
 41
0.0
 71
     1
 72
     1
  1
15
  7
SLDTEXTSTYLE0
 73
     1
 44
1.0
  0
ENDBLK
  5
105
330
103
100
AcDbEntity
  8
0
100
AcDbBlockEnd
  0
BLOCK
  5
110
330
10F
100
AcDbEntity
  8
0
100
AcDbBlockBegin
  2
*D6
 70
     1
 10
0.0
 20
0.0
 30
0.0
  3
*D6
  1

  0
SOLID
  5
112
330
10F
100
AcDbEntity
  8
KOTY
100
AcDbTrace
 10
70.5615381224
 20
259.8649262097
 30
0.0
 11
70.1769227378
 21
257.3649262097
 31
0.0
 12
70.946153507
 22
257.3649262097
 32
0.0
 13
70.946153507
 23
257.3649262097
 33
0.0
  0
SOLID
  5
113
330
10F
100
AcDbEntity
  8
KOTY
100
AcDbTrace
 10
70.5615381224
 20
206.8649262097
 30
0.0
 11
70.946153507
 21
209.3649262097
 31
0.0
 12
70.1769227378
 22
209.3649262097
 32
0.0
 13
70.1769227378
 23
209.3649262097
 33
0.0
  0
LINE
  5
114
330
10F
100
AcDbEntity
  8
KOTY
100
AcDbLine
 10
64.0615381224
 20
259.8649262097
 30
0.0
 11
71.5615381224
 21
259.8649262097
 31
0.0
  0
LINE
  5
115
330
10F
100
AcDbEntity
  8
KOTY
100
AcDbLine
 10
62.5615381224
 20
206.8649262097
 30
0.0
 11
71.5615381224
 21
206.8649262097
 31
0.0
  0
LINE
  5
116
330
10F
100
AcDbEntity
  8
KOTY
100
AcDbLine
 10
70.5615381224
 20
259.8649262097
 30
0.0
 11
70.5615381224
 21
206.8649262097
 31
0.0
  0
MTEXT
  5
117
330
10F
100
AcDbEntity
  8
KOTY
100
AcDbMText
 10
67.3388688312
 20
230.5020787996
 30
-49.9
 40
2.5
 41
0.0
 71
     1
 72
     1
  1
53
  7
SLDTEXTSTYLE0
 11
-7.044195017643634E-15
 21
1.0
 31
0.0
 73
     1
 44
1.0
  0
ENDBLK
  5
111
330
10F
100
AcDbEntity
  8
0
100
AcDbBlockEnd
  0
BLOCK
  5
18A
330
189
100
AcDbEntity
  8
0
100
AcDbBlockBegin
  2
*D7
 70
     1
 10
0.0
 20
0.0
 30
0.0
  3
*D7
  1

  0
SOLID
  5
18C
330
189
100
AcDbEntity
  8
KOTY
100
AcDbTrace
 10
151.41678962
 20
181.0288183404
 30
0.0
 11
148.91678962
 21
181.413433725
 31
0.0
 12
148.91678962
 22
180.6442029558
 32
0.0
 13
148.91678962
 23
180.6442029558
 33
0.0
  0
SOLID
  5
18D
330
189
100
AcDbEntity
  8
KOTY
100
AcDbTrace
 10
166.41678962
 20
181.0288183404
 30
0.0
 11
168.91678962
 21
180.6442029558
 31
0.0
 12
168.91678962
 22
181.413433725
 32
0.0
 13
168.91678962
 23
181.413433725
 33
0.0
  0
LINE
  5
18E
330
189
100
AcDbEntity
  8
KOTY
100
AcDbLine
 10
151.41678962
 20
173.0288183404
 30
0.0
 11
151.41678962
 21
182.0288183404
 31
0.0
  0
LINE
  5
18F
330
189
100
AcDbEntity
  8
KOTY
100
AcDbLine
 10
166.41678962
 20
173.0288183404
 30
0.0
 11
166.41678962
 21
182.0288183404
 31
0.0
  0
LINE
  5
190
330
189
100
AcDbEntity
  8
KOTY
100
AcDbLine
 10
151.41678962
 20
181.0288183404
 30
0.0
 11
146.6090973123
 21
181.0288183404
 31
0.0
  0
LINE
  5
191
330
189
100
AcDbEntity
  8
KOTY
100
AcDbLine
 10
151.41678962
 20
181.0288183404
 30
0.0
 11
166.41678962
 21
181.0288183404
 31
0.0
  0
LINE
  5
192
330
189
100
AcDbEntity
  8
KOTY
100
AcDbLine
 10
166.41678962
 20
181.0288183404
 30
0.0
 11
171.2244819277
 21
181.0288183404
 31
0.0
  0
MTEXT
  5
193
330
189
100
AcDbEntity
  8
KOTY
100
AcDbMText
 10
155.7393949752
 20
184.2514876317
 30
-49.9
 40
2.5
 41
0.0
 71
     1
 72
     1
  1
15
  7
SLDTEXTSTYLE0
 73
     1
 44
1.0
  0
ENDBLK
  5
18B
330
189
100
AcDbEntity
  8
0
100
AcDbBlockEnd
  0
BLOCK
  5
196
330
195
100
AcDbEntity
  8
0
100
AcDbBlockBegin
  2
*D8
 70
     1
 10
0.0
 20
0.0
 30
0.0
  3
*D8
  1

  0
SOLID
  5
198
330
195
100
AcDbEntity
  8
KOTY
100
AcDbTrace
 10
175.91678962
 20
173.5288183404
 30
0.0
 11
175.5321742354
 21
171.0288183404
 31
0.0
 12
176.3014050046
 22
171.0288183404
 32
0.0
 13
176.3014050046
 23
171.0288183404
 33
0.0
  0
SOLID
  5
199
330
195
100
AcDbEntity
  8
KOTY
100
AcDbTrace
 10
175.91678962
 20
120.5288183404
 30
0.0
 11
176.3014050046
 21
123.0288183404
 31
0.0
 12
175.5321742354
 22
123.0288183404
 32
0.0
 13
175.5321742354
 23
123.0288183404
 33
0.0
  0
LINE
  5
19A
330
195
100
AcDbEntity
  8
KOTY
100
AcDbLine
 10
169.41678962
 20
173.5288183404
 30
0.0
 11
176.91678962
 21
173.5288183404
 31
0.0
  0
LINE
  5
19B
330
195
100
AcDbEntity
  8
KOTY
100
AcDbLine
 10
167.91678962
 20
120.5288183404
 30
0.0
 11
176.91678962
 21
120.5288183404
 31
0.0
  0
LINE
  5
19C
330
195
100
AcDbEntity
  8
KOTY
100
AcDbLine
 10
175.91678962
 20
173.5288183404
 30
0.0
 11
175.91678962
 21
120.5288183404
 31
0.0
  0
MTEXT
  5
19D
330
195
100
AcDbEntity
  8
KOTY
100
AcDbMText
 10
172.6941203288
 20
144.1659709303
 30
-49.9
 40
2.5
 41
0.0
 71
     1
 72
     1
  1
53
  7
SLDTEXTSTYLE0
 11
-7.044195017643634E-15
 21
1.0
 31
0.0
 73
     1
 44
1.0
  0
ENDBLK
  5
197
330
195
100
AcDbEntity
  8
0
100
AcDbBlockEnd
  0
BLOCK
  5
1A0
330
19F
100
AcDbEntity
  8
0
100
AcDbBlockBegin
  2
*D9
 70
     1
 10
0.0
 20
0.0
 30
0.0
  3
*D9
  1

  0
SOLID
  5
1A2
330
19F
100
AcDbEntity
  8
KOTY
100
AcDbTrace
 10
169.91678962
 20
113.0288183404
 30
0.0
 11
167.41678962
 21
113.413433725
 31
0.0
 12
167.41678962
 22
112.6442029558
 32
0.0
 13
167.41678962
 23
112.6442029558
 33
0.0
  0
SOLID
  5
1A3
330
19F
100
AcDbEntity
  8
KOTY
100
AcDbTrace
 10
147.91678962
 20
113.0288183404
 30
0.0
 11
150.41678962
 21
112.6442029558
 31
0.0
 12
150.41678962
 22
113.413433725
 32
0.0
 13
150.41678962
 23
113.413433725
 33
0.0
  0
LINE
  5
1A4
330
19F
100
AcDbEntity
  8
KOTY
100
AcDbLine
 10
169.91678962
 20
119.3288183404
 30
0.0
 11
169.91678962
 21
112.0288183404
 31
0.0
  0
LINE
  5
1A5
330
19F
100
AcDbEntity
  8
KOTY
100
AcDbLine
 10
147.91678962
 20
121.0288183404
 30
0.0
 11
147.91678962
 21
112.0288183404
 31
0.0
  0
LINE
  5
1A6
330
19F
100
AcDbEntity
  8
KOTY
100
AcDbLine
 10
169.91678962
 20
113.0288183404
 30
0.0
 11
147.91678962
 21
113.0288183404
 31
0.0
  0
MTEXT
  5
1A7
330
19F
100
AcDbEntity
  8
KOTY
100
AcDbMText
 10
155.5860976764
 20
116.2514876317
 30
-49.9
 40
2.5
 41
0.0
 71
     1
 72
     1
  1
22
  7
SLDTEXTSTYLE0
 73
     1
 44
1.0
  0
ENDBLK
  5
1A1
330
19F
100
AcDbEntity
  8
0
100
AcDbBlockEnd
  0
BLOCK
  5
1AA
330
1A9
100
AcDbEntity
  8
0
100
AcDbBlockBegin
  2
*D10
 70
     1
 10
0.0
 20
0.0
 30
0.0
  3
*D10
  1

  0
SOLID
  5
1AC
330
1A9
100
AcDbEntity
  8
KOTY
100
AcDbTrace
 10
169.91678962
 20
107.0288183404
 30
0.0
 11
167.41678962
 21
107.413433725
 31
0.0
 12
167.41678962
 22
106.6442029558
 32
0.0
 13
167.41678962
 23
106.6442029558
 33
0.0
  0
SOLID
  5
1AD
330
1A9
100
AcDbEntity
  8
KOTY
100
AcDbTrace
 10
131.91678962
 20
107.0288183404
 30
0.0
 11
134.41678962
 21
106.6442029558
 31
0.0
 12
134.41678962
 22
107.413433725
 32
0.0
 13
134.41678962
 23
107.413433725
 33
0.0
  0
LINE
  5
1AE
330
1A9
100
AcDbEntity
  8
KOTY
100
AcDbLine
 10
169.91678962
 20
119.3288183404
 30
0.0
 11
169.91678962
 21
106.0288183404
 31
0.0
  0
LINE
  5
1AF
330
1A9
100
AcDbEntity
  8
KOTY
100
AcDbLine
 10
131.91678962
 20
147.0288183404
 30
0.0
 11
131.91678962
 21
106.0288183404
 31
0.0
  0
LINE
  5
1B0
330
1A9
100
AcDbEntity
  8
KOTY
100
AcDbLine
 10
169.91678962
 20
107.0288183404
 30
0.0
 11
131.91678962
 21
107.0288183404
 31
0.0
  0
MTEXT
  5
1B1
330
1A9
100
AcDbEntity
  8
KOTY
100
AcDbMText
 10
148.0539422099
 20
110.2514876317
 30
-49.9
 40
2.5
 41
0.0
 71
     1
 72
     1
  1
38
  7
SLDTEXTSTYLE0
 73
     1
 44
1.0
  0
ENDBLK
  5
1AB
330
1A9
100
AcDbEntity
  8
0
100
AcDbBlockEnd
  0
BLOCK
  5
1B4
330
1B3
100
AcDbEntity
  8
0
100
AcDbBlockBegin
  2
*D11
 70
     1
 10
0.0
 20
0.0
 30
0.0
  3
*D11
  1

  0
SOLID
  5
1B6
330
1B3
100
AcDbEntity
  8
KOTY
100
AcDbTrace
 10
147.91678962
 20
113.0288183404
 30
0.0
 11
145.41678962
 21
113.413433725
 31
0.0
 12
145.41678962
 22
112.6442029558
 32
0.0
 13
145.41678962
 23
112.6442029558
 33
0.0
  0
SOLID
  5
1B7
330
1B3
100
AcDbEntity
  8
KOTY
100
AcDbTrace
 10
131.91678962
 20
113.0288183404
 30
0.0
 11
134.41678962
 21
112.6442029558
 31
0.0
 12
134.41678962
 22
113.413433725
 32
0.0
 13
134.41678962
 23
113.413433725
 33
0.0
  0
LINE
  5
1B8
330
1B3
100
AcDbEntity
  8
KOTY
100
AcDbLine
 10
147.91678962
 20
121.0288183404
 30
0.0
 11
147.91678962
 21
112.0288183404
 31
0.0
  0
LINE
  5
1B9
330
1B3
100
AcDbEntity
  8
KOTY
100
AcDbLine
 10
131.91678962
 20
147.0288183404
 30
0.0
 11
131.91678962
 21
112.0288183404
 31
0.0
  0
LINE
  5
1BA
330
1B3
100
AcDbEntity
  8
KOTY
100
AcDbLine
 10
147.91678962
 20
113.0288183404
 30
0.0
 11
131.91678962
 21
113.0288183404
 31
0.0
  0
MTEXT
  5
1BB
330
1B3
100
AcDbEntity
  8
KOTY
100
AcDbMText
 10
136.5717867696
 20
116.2514876317
 30
-49.9
 40
2.5
 41
0.0
 71
     1
 72
     1
  1
16
  7
SLDTEXTSTYLE0
 73
     1
 44
1.0
  0
ENDBLK
  5
1B5
330
1B3
100
AcDbEntity
  8
0
100
AcDbBlockEnd
  0
BLOCK
  5
1BE
330
1BD
100
AcDbEntity
  8
0
100
AcDbBlockBegin
  2
*D12
 70
     1
 10
0.0
 20
0.0
 30
0.0
  3
*D12
  1

  0
SOLID
  5
1C0
330
1BD
100
AcDbEntity
  8
KOTY
100
AcDbTrace
 10
125.91678962
 20
175.0288183404
 30
0.0
 11
125.5321742354
 21
172.5288183404
 31
0.0
 12
126.3014050046
 22
172.5288183404
 32
0.0
 13
126.3014050046
 23
172.5288183404
 33
0.0
  0
SOLID
  5
1C1
330
1BD
100
AcDbEntity
  8
KOTY
100
AcDbTrace
 10
125.91678962
 20
119.0288183404
 30
0.0
 11
126.3014050046
 21
121.5288183404
 31
0.0
 12
125.5321742354
 22
121.5288183404
 32
0.0
 13
125.5321742354
 23
121.5288183404
 33
0.0
  0
LINE
  5
1C2
330
1BD
100
AcDbEntity
  8
KOTY
100
AcDbLine
 10
147.91678962
 20
175.0288183404
 30
0.0
 11
124.91678962
 21
175.0288183404
 31
0.0
  0
LINE
  5
1C3
330
1BD
100
AcDbEntity
  8
KOTY
100
AcDbLine
 10
147.91678962
 20
119.0288183404
 30
0.0
 11
132.67878962
 21
119.0288183404
 31
0.0
  0
LINE
  5
1C4
330
1BD
100
AcDbEntity
  8
KOTY
100
AcDbLine
 10
131.15478962
 20
119.0288183404
 30
0.0
 11
124.91678962
 21
119.0288183404
 31
0.0
  0
LINE
  5
1C5
330
1BD
100
AcDbEntity
  8
KOTY
100
AcDbLine
 10
125.91678962
 20
175.0288183404
 30
0.0
 11
125.91678962
 21
119.0288183404
 31
0.0
  0
MTEXT
  5
1C6
330
1BD
100
AcDbEntity
  8
KOTY
100
AcDbMText
 10
122.6941203288
 20
144.1659709303
 30
-49.9
 40
2.5
 41
0.0
 71
     1
 72
     1
  1
56
  7
SLDTEXTSTYLE0
 11
-7.044195017643634E-15
 21
1.0
 31
0.0
 73
     1
 44
1.0
  0
ENDBLK
  5
1BF
330
1BD
100
AcDbEntity
  8
0
100
AcDbBlockEnd
  0
BLOCK
  5
21E
330
21D
100
AcDbEntity
  8
0
100
AcDbBlockBegin
  2
*D13
 70
     1
 10
0.0
 20
0.0
 30
0.0
  3
*D13
  1

  0
SOLID
  5
220
330
21D
100
AcDbEntity
  8
KOTY
100
AcDbTrace
 10
44.0782835072
 20
97.2873001832
 30
0.0
 11
41.5782835072
 21
97.6719155678
 31
0.0
 12
41.5782835072
 22
96.9026847985
 32
0.0
 13
41.5782835072
 23
96.9026847985
 33
0.0
  0
SOLID
  5
221
330
21D
100
AcDbEntity
  8
KOTY
100
AcDbTrace
 10
59.0782835072
 20
97.2873001832
 30
0.0
 11
61.5782835072
 21
96.9026847985
 31
0.0
 12
61.5782835072
 22
97.6719155678
 32
0.0
 13
61.5782835072
 23
97.6719155678
 33
0.0
  0
LINE
  5
222
330
21D
100
AcDbEntity
  8
KOTY
100
AcDbLine
 10
44.0782835072
 20
90.7873001832
 30
0.0
 11
44.0782835072
 21
98.2873001832
 31
0.0
  0
LINE
  5
223
330
21D
100
AcDbEntity
  8
KOTY
100
AcDbLine
 10
59.0782835072
 20
90.7873001832
 30
0.0
 11
59.0782835072
 21
98.2873001832
 31
0.0
  0
LINE
  5
224
330
21D
100
AcDbEntity
  8
KOTY
100
AcDbLine
 10
44.0782835072
 20
97.2873001832
 30
0.0
 11
39.2705911995
 21
97.2873001832
 31
0.0
  0
LINE
  5
225
330
21D
100
AcDbEntity
  8
KOTY
100
AcDbLine
 10
44.0782835072
 20
97.2873001832
 30
0.0
 11
59.0782835072
 21
97.2873001832
 31
0.0
  0
LINE
  5
226
330
21D
100
AcDbEntity
  8
KOTY
100
AcDbLine
 10
59.0782835072
 20
97.2873001832
 30
0.0
 11
63.8859758149
 21
97.2873001832
 31
0.0
  0
MTEXT
  5
227
330
21D
100
AcDbEntity
  8
KOTY
100
AcDbMText
 10
48.715436097
 20
100.5099694744
 30
-49.9
 40
2.5
 41
0.0
 71
     1
 72
     1
  1
15
  7
SLDTEXTSTYLE0
 73
     1
 44
1.0
  0
ENDBLK
  5
21F
330
21D
100
AcDbEntity
  8
0
100
AcDbBlockEnd
  0
BLOCK
  5
22A
330
229
100
AcDbEntity
  8
0
100
AcDbBlockBegin
  2
*D14
 70
     1
 10
0.0
 20
0.0
 30
0.0
  3
*D14
  1

  0
SOLID
  5
22C
330
229
100
AcDbEntity
  8
KOTY
100
AcDbTrace
 10
68.5782835072
 20
91.2873001832
 30
0.0
 11
68.1936681225
 21
88.7873001832
 31
0.0
 12
68.9628988918
 22
88.7873001832
 32
0.0
 13
68.9628988918
 23
88.7873001832
 33
0.0
  0
SOLID
  5
22D
330
229
100
AcDbEntity
  8
KOTY
100
AcDbTrace
 10
68.5782835072
 20
65.0873001832
 30
0.0
 11
68.9628988918
 21
67.5873001832
 31
0.0
 12
68.1936681225
 22
67.5873001832
 32
0.0
 13
68.1936681225
 23
67.5873001832
 33
0.0
  0
LINE
  5
22E
330
229
100
AcDbEntity
  8
KOTY
100
AcDbLine
 10
62.0782835072
 20
91.2873001832
 30
0.0
 11
69.5782835072
 21
91.2873001832
 31
0.0
  0
LINE
  5
22F
330
229
100
AcDbEntity
  8
KOTY
100
AcDbLine
 10
60.3782835072
 20
65.0873001832
 30
0.0
 11
69.5782835072
 21
65.0873001832
 31
0.0
  0
LINE
  5
230
330
229
100
AcDbEntity
  8
KOTY
100
AcDbLine
 10
68.5782835072
 20
91.2873001832
 30
0.0
 11
68.5782835072
 21
65.0873001832
 31
0.0
  0
MTEXT
  5
231
330
229
100
AcDbEntity
  8
KOTY
100
AcDbMText
 10
65.3556142159
 20
74.3789519771
 30
-49.9
 40
2.5
 41
0.0
 71
     1
 72
     1
  1
26,2
  7
SLDTEXTSTYLE0
 11
-7.044195017643634E-15
 21
1.0
 31
0.0
 73
     1
 44
1.0
  0
ENDBLK
  5
22B
330
229
100
AcDbEntity
  8
0
100
AcDbBlockEnd
  0
BLOCK
  5
234
330
233
100
AcDbEntity
  8
0
100
AcDbBlockBegin
  2
*D15
 70
     1
 10
0.0
 20
0.0
 30
0.0
  3
*D15
  1

  0
SOLID
  5
236
330
233
100
AcDbEntity
  8
KOTY
100
AcDbTrace
 10
68.5782835072
 20
63.9873001832
 30
0.0
 11
68.1936681225
 21
61.4873001832
 31
0.0
 12
68.9628988918
 22
61.4873001832
 32
0.0
 13
68.9628988918
 23
61.4873001832
 33
0.0
  0
SOLID
  5
237
330
233
100
AcDbEntity
  8
KOTY
100
AcDbTrace
 10
68.5782835072
 20
39.4873001832
 30
0.0
 11
68.9628988918
 21
41.9873001832
 31
0.0
 12
68.1936681225
 22
41.9873001832
 32
0.0
 13
68.1936681225
 23
41.9873001832
 33
0.0
  0
LINE
  5
238
330
233
100
AcDbEntity
  8
KOTY
100
AcDbLine
 10
61.3782835072
 20
63.9873001832
 30
0.0
 11
69.5782835072
 21
63.9873001832
 31
0.0
  0
LINE
  5
239
330
233
100
AcDbEntity
  8
KOTY
100
AcDbLine
 10
59.3782835072
 20
39.4873001832
 30
0.0
 11
69.5782835072
 21
39.4873001832
 31
0.0
  0
LINE
  5
23A
330
233
100
AcDbEntity
  8
KOTY
100
AcDbLine
 10
68.5782835072
 20
63.9873001832
 30
0.0
 11
68.5782835072
 21
39.4873001832
 31
0.0
  0
MTEXT
  5
23B
330
233
100
AcDbEntity
  8
KOTY
100
AcDbMText
 10
65.3556142159
 20
47.6738163041
 30
-49.9
 40
2.5
 41
0.0
 71
     1
 72
     1
  1
24,5
  7
SLDTEXTSTYLE0
 11
-7.044195017643634E-15
 21
1.0
 31
0.0
 73
     1
 44
1.0
  0
ENDBLK
  5
235
330
233
100
AcDbEntity
  8
0
100
AcDbBlockEnd
  0
BLOCK
  5
23E
330
23D
100
AcDbEntity
  8
0
100
AcDbBlockBegin
  2
*D16
 70
     1
 10
0.0
 20
0.0
 30
0.0
  3
*D16
  1

  0
SOLID
  5
240
330
23D
100
AcDbEntity
  8
KOTY
100
AcDbTrace
 10
74.5782835072
 20
38.2873001832
 30
0.0
 11
74.9628988918
 21
40.7873001832
 31
0.0
 12
74.1936681225
 22
40.7873001832
 32
0.0
 13
74.1936681225
 23
40.7873001832
 33
0.0
  0
SOLID
  5
241
330
23D
100
AcDbEntity
  8
KOTY
100
AcDbTrace
 10
74.5782835072
 20
91.2873001832
 30
0.0
 11
74.1936681225
 21
88.7873001832
 31
0.0
 12
74.9628988918
 22
88.7873001832
 32
0.0
 13
74.9628988918
 23
88.7873001832
 33
0.0
  0
LINE
  5
242
330
23D
100
AcDbEntity
  8
KOTY
100
AcDbLine
 10
60.0782835072
 20
38.2873001832
 30
0.0
 11
75.5782835072
 21
38.2873001832
 31
0.0
  0
LINE
  5
243
330
23D
100
AcDbEntity
  8
KOTY
100
AcDbLine
 10
62.0782835072
 20
91.2873001832
 30
0.0
 11
75.5782835072
 21
91.2873001832
 31
0.0
  0
LINE
  5
244
330
23D
100
AcDbEntity
  8
KOTY
100
AcDbLine
 10
74.5782835072
 20
38.2873001832
 30
0.0
 11
74.5782835072
 21
91.2873001832
 31
0.0
  0
MTEXT
  5
245
330
23D
100
AcDbEntity
  8
KOTY
100
AcDbMText
 10
71.3556142159
 20
61.185333169
 30
-49.9
 40
2.5
 41
0.0
 71
     1
 72
     1
  1
53
  7
SLDTEXTSTYLE0
 11
6.123233995736766E-17
 21
1.0
 31
0.0
 73
     1
 44
1.0
  0
ENDBLK
  5
23F
330
23D
100
AcDbEntity
  8
0
100
AcDbBlockEnd
  0
BLOCK
  5
248
330
247
100
AcDbEntity
  8
0
100
AcDbBlockBegin
  2
*D17
 70
     1
 10
0.0
 20
0.0
 30
0.0
  3
*D17
  1

  0
SOLID
  5
24A
330
247
100
AcDbEntity
  8
KOTY
100
AcDbTrace
 10
62.5782835072
 20
32.2873001832
 30
0.0
 11
60.0782835072
 21
32.6719155678
 31
0.0
 12
60.0782835072
 22
31.9026847985
 32
0.0
 13
60.0782835072
 23
31.9026847985
 33
0.0
  0
SOLID
  5
24B
330
247
100
AcDbEntity
  8
KOTY
100
AcDbTrace
 10
40.5782835072
 20
32.2873001832
 30
0.0
 11
43.0782835072
 21
31.9026847985
 31
0.0
 12
43.0782835072
 22
32.6719155678
 32
0.0
 13
43.0782835072
 23
32.6719155678
 33
0.0
  0
LINE
  5
24C
330
247
100
AcDbEntity
  8
KOTY
100
AcDbLine
 10
62.5782835072
 20
42.7873001832
 30
0.0
 11
62.5782835072
 21
31.2873001832
 31
0.0
  0
LINE
  5
24D
330
247
100
AcDbEntity
  8
KOTY
100
AcDbLine
 10
40.5782835072
 20
38.7873001832
 30
0.0
 11
40.5782835072
 21
31.2873001832
 31
0.0
  0
LINE
  5
24E
330
247
100
AcDbEntity
  8
KOTY
100
AcDbLine
 10
62.5782835072
 20
32.2873001832
 30
0.0
 11
40.5782835072
 21
32.2873001832
 31
0.0
  0
MTEXT
  5
24F
330
247
100
AcDbEntity
  8
KOTY
100
AcDbMText
 10
48.715436097
 20
35.5099694744
 30
-49.9
 40
2.5
 41
0.0
 71
     1
 72
     1
  1
22
  7
SLDTEXTSTYLE0
 73
     1
 44
1.0
  0
ENDBLK
  5
249
330
247
100
AcDbEntity
  8
0
100
AcDbBlockEnd
  0
ENDSEC
  0
SECTION
  2
ENTITIES
  0
MTEXT
  5
5E
330
1F
100
AcDbEntity
  8
TEXT
100
AcDbMText
 10
87.4486635398
 20
65.6513225424
 30
0.0
 40
5.2916666667
 41
0.0
 71
     1
 72
     1
  1
A3-ES
  7
SLDTEXTSTYLE0
 73
     1
 44
1.0
  0
MTEXT
  5
5F
330
1F
100
AcDbEntity
  8
TEXT
100
AcDbMText
 10
87.4486635398
 20
151.1259550163
 30
0.0
 40
5.2916666667
 41
0.0
 71
     1
 72
     1
  1
FAR-ES
  7
SLDTEXTSTYLE0
 73
     1
 44
1.0
  0
MTEXT
  5
60
330
1F
100
AcDbEntity
  8
TEXT
100
AcDbMText
 10
86.5128231194
 20
235.4747343673
 30
0.0
 40
5.2916666667
 41
0.0
 71
     1
 72
     1
  1
FAG-ES
  7
SLDTEXTSTYLE0
 73
     1
 44
1.0
  0
ARC
  5
61
330
1F
100
AcDbEntity
  8
OBRYS
100
AcDbCircle
 10
41.8615381224
 20
207.6649262097
 30
0.0
 40
0.700000000000017
100
AcDbArc
 50
0.0
 51
90.0
  0
ARC
  5
62
330
1F
100
AcDbEntity
  8
OBRYS
100
AcDbCircle
 10
63.0615381224
 20
207.6578194285
 30
0.0
 40
0.5
100
AcDbArc
 50
45.0
 51
180.0
  0
ARC
  5
63
330
1F
100
AcDbEntity
  8
OBRYS
100
AcDbCircle
 10
64.0615381224
 20
206.1149262097
 30
0.0
 40
0.5
100
AcDbArc
 50
270.0
 51
0.0
  0
ARC
  5
64
330
1F
100
AcDbEntity
  8
OBRYS
100
AcDbCircle
 10
36.2615381224
 20
206.3149262097
 30
0.0
 40
0.6999999999999957
100
AcDbArc
 50
180.0
 51
270.0
  0
ARC
  5
65
330
1F
100
AcDbEntity
  8
OBRYS
100
AcDbCircle
 10
36.2615381224
 20
260.4149262097
 30
0.0
 40
0.6999999999999957
100
AcDbArc
 50
90.0
 51
180.0
  0
ARC
  5
66
330
1F
100
AcDbEntity
  8
OBRYS
100
AcDbCircle
 10
46.8615381224
 20
260.4149262097
 30
0.0
 40
0.6999999999999957
100
AcDbArc
 50
0.0
 51
90.0
  0
ARC
  5
67
330
1F
100
AcDbEntity
  8
OBRYS
100
AcDbCircle
 10
46.8615381224
 20
259.0649262097
 30
0.0
 40
0.7000000000000028
100
AcDbArc
 50
270.0
 51
0.0
  0
ARC
  5
68
330
1F
100
AcDbEntity
  8
OBRYS
100
AcDbCircle
 10
46.7615381224
 20
259.0649262097
 30
0.0
 40
0.7000000000000028
100
AcDbArc
 50
180.0
 51
270.0
  0
ARC
  5
69
330
1F
100
AcDbEntity
  8
OBRYS
100
AcDbCircle
 10
41.8615381224
 20
259.0649262097
 30
0.0
 40
0.7000000000000028
100
AcDbArc
 50
270.0
 51
0.0
  0
ARC
  5
6A
330
1F
100
AcDbEntity
  8
OBRYS
100
AcDbCircle
 10
41.7615381224
 20
259.0649262097
 30
0.0
 40
0.6999999999999957
100
AcDbArc
 50
180.0
 51
270.0
  0
ARC
  5
6B
330
1F
100
AcDbEntity
  8
OBRYS
100
AcDbCircle
 10
41.7615381224
 20
207.6649262097
 30
0.0
 40
0.700000000000017
100
AcDbArc
 50
90.0
 51
180.0
  0
LINE
  5
6C
330
1F
100
AcDbEntity
  8
OBRYS
100
AcDbLine
 10
62.5615381224
 20
206.8649262097
 30
0.0
 11
42.5615381224
 21
206.8649262097
 31
0.0
  0
LINE
  5
6D
330
1F
100
AcDbEntity
  8
OBRYS
100
AcDbLine
 10
42.5615381224
 20
206.8649262097
 30
0.0
 11
42.5615381224
 21
207.6649262097
 31
0.0
  0
LINE
  5
6E
330
1F
100
AcDbEntity
  8
OBRYS
100
AcDbLine
 10
41.8615381224
 20
208.3649262097
 30
0.0
 11
41.7615381224
 21
208.3649262097
 31
0.0
  0
LINE
  5
6F
330
1F
100
AcDbEntity
  8
OBRYS
100
AcDbLine
 10
41.0615381224
 20
207.6649262097
 30
0.0
 11
41.0615381224
 21
206.8649262097
 31
0.0
  0
LINE
  5
70
330
1F
100
AcDbEntity
  8
OBRYS
100
AcDbLine
 10
41.0615381224
 20
206.8649262097
 30
0.0
 11
36.8115381224
 21
206.8649262097
 31
0.0
  0
LINE
  5
71
330
1F
100
AcDbEntity
  8
OBRYS
100
AcDbLine
 10
36.8115381224
 20
206.8649262097
 30
0.0
 11
36.8115381224
 21
259.8649262097
 31
0.0
  0
LINE
  5
72
330
1F
100
AcDbEntity
  8
OBRYS
100
AcDbLine
 10
36.8115381224
 20
259.8649262097
 30
0.0
 11
41.0615381224
 21
259.8649262097
 31
0.0
  0
LINE
  5
73
330
1F
100
AcDbEntity
  8
OBRYS
100
AcDbLine
 10
41.0615381224
 20
259.8649262097
 30
0.0
 11
41.0615381224
 21
259.0649262097
 31
0.0
  0
LINE
  5
74
330
1F
100
AcDbEntity
  8
OBRYS
100
AcDbLine
 10
41.7615381224
 20
258.3649262097
 30
0.0
 11
41.8615381224
 21
258.3649262097
 31
0.0
  0
LINE
  5
75
330
1F
100
AcDbEntity
  8
OBRYS
100
AcDbLine
 10
42.5615381224
 20
259.0649262097
 30
0.0
 11
42.5615381224
 21
259.8649262097
 31
0.0
  0
LINE
  5
76
330
1F
100
AcDbEntity
  8
OBRYS
100
AcDbLine
 10
42.5615381224
 20
259.8649262097
 30
0.0
 11
46.0615381224
 21
259.8649262097
 31
0.0
  0
LINE
  5
77
330
1F
100
AcDbEntity
  8
OBRYS
100
AcDbLine
 10
46.0615381224
 20
259.8649262097
 30
0.0
 11
46.0615381224
 21
259.0649262097
 31
0.0
  0
LINE
  5
78
330
1F
100
AcDbEntity
  8
OBRYS
100
AcDbLine
 10
46.7615381224
 20
258.3649262097
 30
0.0
 11
46.8615381224
 21
258.3649262097
 31
0.0
  0
LINE
  5
79
330
1F
100
AcDbEntity
  8
OBRYS
100
AcDbLine
 10
47.5615381224
 20
259.0649262097
 30
0.0
 11
47.5615381224
 21
260.4149262097
 31
0.0
  0
LINE
  5
7A
330
1F
100
AcDbEntity
  8
OBRYS
100
AcDbLine
 10
46.8615381224
 20
261.1149262097
 30
0.0
 11
36.2615381224
 21
261.1149262097
 31
0.0
  0
LINE
  5
7B
330
1F
100
AcDbEntity
  8
OBRYS
100
AcDbLine
 10
35.5615381224
 20
260.4149262097
 30
0.0
 11
35.5615381224
 21
206.3149262097
 31
0.0
  0
LINE
  5
7C
330
1F
100
AcDbEntity
  8
OBRYS
100
AcDbLine
 10
36.2615381224
 20
205.6149262097
 30
0.0
 11
64.0615381224
 21
205.6149262097
 31
0.0
  0
LINE
  5
7D
330
1F
100
AcDbEntity
  8
OBRYS
100
AcDbLine
 10
64.5615381224
 20
206.1149262097
 30
0.0
 11
64.5615381224
 21
206.8649262097
 31
0.0
  0
LINE
  5
7E
330
1F
100
AcDbEntity
  8
OBRYS
100
AcDbLine
 10
64.5615381224
 20
206.8649262097
 30
0.0
 11
63.415091513
 21
208.0113728191
 31
0.0
  0
LINE
  5
7F
330
1F
100
AcDbEntity
  8
OBRYS
100
AcDbLine
 10
62.5615381224
 20
207.6578194285
 30
0.0
 11
62.5615381224
 21
206.8649262097
 31
0.0
  0
ARC
  5
80
330
1F
100
AcDbEntity
  8
OBRYS
100
AcDbCircle
 10
61.8615381224
 20
229.2649262097
 30
0.0
 40
0.5
100
AcDbArc
 50
90.0
 51
180.0
  0
LINE
  5
81
330
1F
100
AcDbEntity
  8
OBRYS
100
AcDbLine
 10
61.8615381224
 20
229.7649262097
 30
0.0
 11
63.3615381224
 21
229.7649262097
 31
0.0
  0
LINE
  5
82
330
1F
100
AcDbEntity
  8
OBRYS
100
AcDbLine
 10
63.3615381224
 20
229.7649262097
 30
0.0
 11
63.3615381224
 21
232.5649262097
 31
0.0
  0
LINE
  5
83
330
1F
100
AcDbEntity
  8
OBRYS
100
AcDbLine
 10
63.3615381224
 20
232.5649262097
 30
0.0
 11
43.7615381224
 21
232.5649262097
 31
0.0
  0
LINE
  5
84
330
1F
100
AcDbEntity
  8
OBRYS
100
AcDbLine
 10
43.7615381224
 20
232.5649262097
 30
0.0
 11
43.7615381224
 21
229.7649262097
 31
0.0
  0
LINE
  5
85
330
1F
100
AcDbEntity
  8
OBRYS
100
AcDbLine
 10
43.7615381224
 20
229.7649262097
 30
0.0
 11
45.2615381224
 21
229.7649262097
 31
0.0
  0
ARC
  5
86
330
1F
100
AcDbEntity
  8
OBRYS
100
AcDbCircle
 10
45.2615381224
 20
229.2649262097
 30
0.0
 40
0.5
100
AcDbArc
 50
0.0
 51
90.0
  0
LINE
  5
87
330
1F
100
AcDbEntity
  8
OBRYS
100
AcDbLine
 10
45.7615381224
 20
229.2649262097
 30
0.0
 11
45.7615381224
 21
229.0649262097
 31
0.0
  0
ARC
  5
88
330
1F
100
AcDbEntity
  8
OBRYS
100
AcDbCircle
 10
45.2615381224
 20
229.0649262097
 30
0.0
 40
0.5
100
AcDbArc
 50
270.0
 51
0.0
  0
LINE
  5
89
330
1F
100
AcDbEntity
  8
OBRYS
100
AcDbLine
 10
45.2615381224
 20
228.5649262097
 30
0.0
 11
43.7615381224
 21
228.5649262097
 31
0.0
  0
LINE
  5
8A
330
1F
100
AcDbEntity
  8
OBRYS
100
AcDbLine
 10
43.7615381224
 20
228.5649262097
 30
0.0
 11
43.7615381224
 21
212.0649262097
 31
0.0
  0
LINE
  5
8B
330
1F
100
AcDbEntity
  8
OBRYS
100
AcDbLine
 10
43.7615381224
 20
212.0649262097
 30
0.0
 11
45.2615381224
 21
212.0649262097
 31
0.0
  0
ARC
  5
8C
330
1F
100
AcDbEntity
  8
OBRYS
100
AcDbCircle
 10
45.2615381224
 20
211.5649262097
 30
0.0
 40
0.5
100
AcDbArc
 50
0.0
 51
90.0
  0
LINE
  5
8D
330
1F
100
AcDbEntity
  8
OBRYS
100
AcDbLine
 10
45.7615381224
 20
211.5649262097
 30
0.0
 11
45.7615381224
 21
211.3649262097
 31
0.0
  0
ARC
  5
8E
330
1F
100
AcDbEntity
  8
OBRYS
100
AcDbCircle
 10
45.2615381224
 20
211.3649262097
 30
0.0
 40
0.5
100
AcDbArc
 50
270.0
 51
0.0
  0
LINE
  5
8F
330
1F
100
AcDbEntity
  8
OBRYS
100
AcDbLine
 10
45.2615381224
 20
210.8649262097
 30
0.0
 11
43.7615381224
 21
210.8649262097
 31
0.0
  0
LINE
  5
90
330
1F
100
AcDbEntity
  8
OBRYS
100
AcDbLine
 10
43.7615381224
 20
210.8649262097
 30
0.0
 11
43.7615381224
 21
208.0649262097
 31
0.0
  0
LINE
  5
91
330
1F
100
AcDbEntity
  8
OBRYS
100
AcDbLine
 10
43.7615381224
 20
208.0649262097
 30
0.0
 11
61.3615381224
 21
208.0649262097
 31
0.0
  0
ARC
  5
92
330
1F
100
AcDbEntity
  8
OBRYS
100
AcDbCircle
 10
61.8615381224
 20
211.5649262097
 30
0.0
 40
0.5000000000000284
100
AcDbArc
 50
90.0
 51
180.0
  0
LINE
  5
93
330
1F
100
AcDbEntity
  8
OBRYS
100
AcDbLine
 10
61.8615381224
 20
212.0649262097
 30
0.0
 11
63.3615381224
 21
212.0649262097
 31
0.0
  0
LINE
  5
94
330
1F
100
AcDbEntity
  8
OBRYS
100
AcDbLine
 10
63.3615381224
 20
212.0649262097
 30
0.0
 11
63.3615381224
 21
228.5649262097
 31
0.0
  0
LINE
  5
95
330
1F
100
AcDbEntity
  8
OBRYS
100
AcDbLine
 10
63.3615381224
 20
228.5649262097
 30
0.0
 11
61.8615381224
 21
228.5649262097
 31
0.0
  0
ARC
  5
96
330
1F
100
AcDbEntity
  8
OBRYS
100
AcDbCircle
 10
61.8615381224
 20
229.0649262097
 30
0.0
 40
0.5
100
AcDbArc
 50
180.0
 51
270.0
  0
LINE
  5
97
330
1F
100
AcDbEntity
  8
OBRYS
100
AcDbLine
 10
61.3615381224
 20
229.0649262097
 30
0.0
 11
61.3615381224
 21
229.2649262097
 31
0.0
  0
ARC
  5
98
330
1F
100
AcDbEntity
  8
OBRYS
100
AcDbCircle
 10
43.0615381224
 20
259.3649262097
 30
0.0
 40
0.5
100
AcDbArc
 50
90.0
 51
180.0
  0
LINE
  5
99
330
1F
100
AcDbEntity
  8
OBRYS
100
AcDbLine
 10
45.5615381224
 20
259.8649262097
 30
0.0
 11
43.0615381224
 21
259.8649262097
 31
0.0
  0
ARC
  5
9A
330
1F
100
AcDbEntity
  8
OBRYS
100
AcDbCircle
 10
45.5615381224
 20
259.3649262097
 30
0.0
 40
0.5
100
AcDbArc
 50
0.0
 51
90.0
  0
LINE
  5
9B
330
1F
100
AcDbEntity
  8
OBRYS
100
AcDbLine
 10
46.0615381224
 20
257.9649262097
 30
0.0
 11
46.0615381224
 21
259.3649262097
 31
0.0
  0
ARC
  5
9C
330
1F
100
AcDbEntity
  8
OBRYS
100
AcDbCircle
 10
45.5615381224
 20
257.9649262097
 30
0.0
 40
0.5
100
AcDbArc
 50
270.0
 51
0.0
  0
LINE
  5
9D
330
1F
100
AcDbEntity
  8
OBRYS
100
AcDbLine
 10
45.3615381224
 20
257.4649262097
 30
0.0
 11
45.5615381224
 21
257.4649262097
 31
0.0
  0
ARC
  5
9E
330
1F
100
AcDbEntity
  8
OBRYS
100
AcDbCircle
 10
45.3615381224
 20
257.9649262097
 30
0.0
 40
0.5
100
AcDbArc
 50
180.0
 51
270.0
  0
LINE
  5
9F
330
1F
100
AcDbEntity
  8
OBRYS
100
AcDbLine
 10
44.8615381224
 20
258.1649262097
 30
0.0
 11
44.8615381224
 21
257.9649262097
 31
0.0
  0
ARC
  5
A0
330
1F
100
AcDbEntity
  8
OBRYS
100
AcDbCircle
 10
44.3615381224
 20
258.1649262097
 30
0.0
 40
0.5
100
AcDbArc
 50
0.0
 51
90.0
  0
LINE
  5
A1
330
1F
100
AcDbEntity
  8
OBRYS
100
AcDbLine
 10
44.2615381224
 20
258.6649262097
 30
0.0
 11
44.3615381224
 21
258.6649262097
 31
0.0
  0
ARC
  5
A2
330
1F
100
AcDbEntity
  8
OBRYS
100
AcDbCircle
 10
44.2615381224
 20
258.1649262097
 30
0.0
 40
0.5
100
AcDbArc
 50
90.0
 51
180.0
  0
LINE
  5
A3
330
1F
100
AcDbEntity
  8
OBRYS
100
AcDbLine
 10
43.7615381224
 20
253.7649262097
 30
0.0
 11
43.7615381224
 21
258.1649262097
 31
0.0
  0
ARC
  5
A4
330
1F
100
AcDbEntity
  8
OBRYS
100
AcDbCircle
 10
44.2615381224
 20
253.7649262097
 30
0.0
 40
0.5
100
AcDbArc
 50
180.0
 51
270.0
  0
LINE
  5
A5
330
1F
100
AcDbEntity
  8
OBRYS
100
AcDbLine
 10
44.3615381224
 20
253.2649262097
 30
0.0
 11
44.2615381224
 21
253.2649262097
 31
0.0
  0
ARC
  5
A6
330
1F
100
AcDbEntity
  8
OBRYS
100
AcDbCircle
 10
44.3615381224
 20
253.7649262097
 30
0.0
 40
0.5
100
AcDbArc
 50
270.0
 51
0.0
  0
LINE
  5
A7
330
1F
100
AcDbEntity
  8
OBRYS
100
AcDbLine
 10
44.8615381224
 20
253.9649262097
 30
0.0
 11
44.8615381224
 21
253.7649262097
 31
0.0
  0
ARC
  5
A8
330
1F
100
AcDbEntity
  8
OBRYS
100
AcDbCircle
 10
45.3615381224
 20
253.9649262097
 30
0.0
 40
0.5
100
AcDbArc
 50
90.0
 51
180.0
  0
LINE
  5
A9
330
1F
100
AcDbEntity
  8
OBRYS
100
AcDbLine
 10
45.5615381224
 20
254.4649262097
 30
0.0
 11
45.3615381224
 21
254.4649262097
 31
0.0
  0
ARC
  5
AA
330
1F
100
AcDbEntity
  8
OBRYS
100
AcDbCircle
 10
45.5615381224
 20
253.9649262097
 30
0.0
 40
0.5
100
AcDbArc
 50
0.0
 51
90.0
  0
LINE
  5
AB
330
1F
100
AcDbEntity
  8
OBRYS
100
AcDbLine
 10
46.0615381224
 20
252.5649262097
 30
0.0
 11
46.0615381224
 21
253.9649262097
 31
0.0
  0
ARC
  5
AC
330
1F
100
AcDbEntity
  8
OBRYS
100
AcDbCircle
 10
45.5615381224
 20
252.5649262097
 30
0.0
 40
0.5
100
AcDbArc
 50
270.0
 51
0.0
  0
LINE
  5
AD
330
1F
100
AcDbEntity
  8
OBRYS
100
AcDbLine
 10
44.2615381224
 20
252.0649262097
 30
0.0
 11
45.5615381224
 21
252.0649262097
 31
0.0
  0
ARC
  5
AE
330
1F
100
AcDbEntity
  8
OBRYS
100
AcDbCircle
 10
44.2615381224
 20
251.5649262097
 30
0.0
 40
0.5
100
AcDbArc
 50
90.0
 51
180.0
  0
LINE
  5
AF
330
1F
100
AcDbEntity
  8
OBRYS
100
AcDbLine
 10
43.7615381224
 20
234.6649262097
 30
0.0
 11
43.7615381224
 21
251.5649262097
 31
0.0
  0
ARC
  5
B0
330
1F
100
AcDbEntity
  8
OBRYS
100
AcDbCircle
 10
44.7615381224
 20
234.6649262097
 30
0.0
 40
1.0
100
AcDbArc
 50
180.0
 51
270.0
  0
LINE
  5
B1
330
1F
100
AcDbEntity
  8
OBRYS
100
AcDbLine
 10
62.3615381224
 20
233.6649262097
 30
0.0
 11
44.7615381224
 21
233.6649262097
 31
0.0
  0
ARC
  5
B2
330
1F
100
AcDbEntity
  8
OBRYS
100
AcDbCircle
 10
62.3615381224
 20
234.6649262097
 30
0.0
 40
1.0
100
AcDbArc
 50
270.0
 51
0.0
  0
LINE
  5
B3
330
1F
100
AcDbEntity
  8
OBRYS
100
AcDbLine
 10
63.3615381224
 20
251.5649262097
 30
0.0
 11
63.3615381224
 21
234.6649262097
 31
0.0
  0
ARC
  5
B4
330
1F
100
AcDbEntity
  8
OBRYS
100
AcDbCircle
 10
62.8615381224
 20
251.5649262097
 30
0.0
 40
0.5
100
AcDbArc
 50
0.0
 51
90.0
  0
LINE
  5
B5
330
1F
100
AcDbEntity
  8
OBRYS
100
AcDbLine
 10
61.5615381224
 20
252.0649262097
 30
0.0
 11
62.8615381224
 21
252.0649262097
 31
0.0
  0
ARC
  5
B6
330
1F
100
AcDbEntity
  8
OBRYS
100
AcDbCircle
 10
61.5615381224
 20
252.5649262097
 30
0.0
 40
0.5
100
AcDbArc
 50
180.0
 51
270.0
  0
LINE
  5
B7
330
1F
100
AcDbEntity
  8
OBRYS
100
AcDbLine
 10
61.0615381224
 20
253.9649262097
 30
0.0
 11
61.0615381224
 21
252.5649262097
 31
0.0
  0
ARC
  5
B8
330
1F
100
AcDbEntity
  8
OBRYS
100
AcDbCircle
 10
61.5615381224
 20
253.9649262097
 30
0.0
 40
0.5
100
AcDbArc
 50
90.0
 51
180.0
  0
LINE
  5
B9
330
1F
100
AcDbEntity
  8
OBRYS
100
AcDbLine
 10
61.7615381224
 20
254.4649262097
 30
0.0
 11
61.5615381224
 21
254.4649262097
 31
0.0
  0
ARC
  5
BA
330
1F
100
AcDbEntity
  8
OBRYS
100
AcDbCircle
 10
61.7615381224
 20
253.9649262097
 30
0.0
 40
0.5
100
AcDbArc
 50
0.0
 51
90.0
  0
LINE
  5
BB
330
1F
100
AcDbEntity
  8
OBRYS
100
AcDbLine
 10
62.2615381224
 20
253.7649262097
 30
0.0
 11
62.2615381224
 21
253.9649262097
 31
0.0
  0
ARC
  5
BC
330
1F
100
AcDbEntity
  8
OBRYS
100
AcDbCircle
 10
62.7615381224
 20
253.7649262097
 30
0.0
 40
0.5000000000000071
100
AcDbArc
 50
180.0
 51
270.0
  0
LINE
  5
BD
330
1F
100
AcDbEntity
  8
OBRYS
100
AcDbLine
 10
62.8615381224
 20
253.2649262097
 30
0.0
 11
62.7615381224
 21
253.2649262097
 31
0.0
  0
ARC
  5
BE
330
1F
100
AcDbEntity
  8
OBRYS
100
AcDbCircle
 10
62.8615381224
 20
253.7649262097
 30
0.0
 40
0.5
100
AcDbArc
 50
270.0
 51
0.0
  0
LINE
  5
BF
330
1F
100
AcDbEntity
  8
OBRYS
100
AcDbLine
 10
63.3615381224
 20
258.1649262097
 30
0.0
 11
63.3615381224
 21
253.7649262097
 31
0.0
  0
ARC
  5
C0
330
1F
100
AcDbEntity
  8
OBRYS
100
AcDbCircle
 10
62.8615381224
 20
258.1649262097
 30
0.0
 40
0.5
100
AcDbArc
 50
0.0
 51
90.0
  0
LINE
  5
C1
330
1F
100
AcDbEntity
  8
OBRYS
100
AcDbLine
 10
62.7615381224
 20
258.6649262097
 30
0.0
 11
62.8615381224
 21
258.6649262097
 31
0.0
  0
ARC
  5
C2
330
1F
100
AcDbEntity
  8
OBRYS
100
AcDbCircle
 10
62.7615381224
 20
258.1649262097
 30
0.0
 40
0.5
100
AcDbArc
 50
90.0
 51
180.0
  0
LINE
  5
C3
330
1F
100
AcDbEntity
  8
OBRYS
100
AcDbLine
 10
62.2615381224
 20
257.9649262097
 30
0.0
 11
62.2615381224
 21
258.1649262097
 31
0.0
  0
ARC
  5
C4
330
1F
100
AcDbEntity
  8
OBRYS
100
AcDbCircle
 10
61.7615381224
 20
257.9649262097
 30
0.0
 40
0.5
100
AcDbArc
 50
270.0
 51
0.0
  0
LINE
  5
C5
330
1F
100
AcDbEntity
  8
OBRYS
100
AcDbLine
 10
61.5615381224
 20
257.4649262097
 30
0.0
 11
61.7615381224
 21
257.4649262097
 31
0.0
  0
ARC
  5
C6
330
1F
100
AcDbEntity
  8
OBRYS
100
AcDbCircle
 10
61.5615381224
 20
257.9649262097
 30
0.0
 40
0.5
100
AcDbArc
 50
180.0
 51
270.0
  0
LINE
  5
C7
330
1F
100
AcDbEntity
  8
OBRYS
100
AcDbLine
 10
61.0615381224
 20
259.3649262097
 30
0.0
 11
61.0615381224
 21
257.9649262097
 31
0.0
  0
ARC
  5
C8
330
1F
100
AcDbEntity
  8
OBRYS
100
AcDbCircle
 10
61.5615381224
 20
259.3649262097
 30
0.0
 40
0.5
100
AcDbArc
 50
90.0
 51
180.0
  0
LINE
  5
C9
330
1F
100
AcDbEntity
  8
OBRYS
100
AcDbLine
 10
64.0615381224
 20
259.8649262097
 30
0.0
 11
61.5615381224
 21
259.8649262097
 31
0.0
  0
ARC
  5
CA
330
1F
100
AcDbEntity
  8
OBRYS
100
AcDbCircle
 10
64.0615381224
 20
259.3649262097
 30
0.0
 40
0.5
100
AcDbArc
 50
0.0
 51
90.0
  0
LINE
  5
CB
330
1F
100
AcDbEntity
  8
OBRYS
100
AcDbLine
 10
64.5615381224
 20
211.3649262097
 30
0.0
 11
64.5615381224
 21
259.3649262097
 31
0.0
  0
ARC
  5
CC
330
1F
100
AcDbEntity
  8
OBRYS
100
AcDbCircle
 10
64.0615381224
 20
211.3649262097
 30
0.0
 40
0.5
100
AcDbArc
 50
270.0
 51
0.0
  0
LINE
  5
CD
330
1F
100
AcDbEntity
  8
OBRYS
100
AcDbLine
 10
63.0615381224
 20
210.8649262097
 30
0.0
 11
64.0615381224
 21
210.8649262097
 31
0.0
  0
ARC
  5
CE
330
1F
100
AcDbEntity
  8
OBRYS
100
AcDbCircle
 10
63.0615381224
 20
210.3649262097
 30
0.0
 40
0.5
100
AcDbArc
 50
90.0
 51
180.0
  0
LINE
  5
CF
330
1F
100
AcDbEntity
  8
OBRYS
100
AcDbLine
 10
62.5615381224
 20
207.3649262097
 30
0.0
 11
62.5615381224
 21
210.3649262097
 31
0.0
  0
ARC
  5
D0
330
1F
100
AcDbEntity
  8
OBRYS
100
AcDbCircle
 10
62.0615381224
 20
207.3649262097
 30
0.0
 40
0.5
100
AcDbArc
 50
270.0
 51
0.0
  0
LINE
  5
D1
330
1F
100
AcDbEntity
  8
OBRYS
100
AcDbLine
 10
43.0615381224
 20
206.8649262097
 30
0.0
 11
62.0615381224
 21
206.8649262097
 31
0.0
  0
ARC
  5
D2
330
1F
100
AcDbEntity
  8
OBRYS
100
AcDbCircle
 10
43.0615381224
 20
207.3649262097
 30
0.0
 40
0.5
100
AcDbArc
 50
180.0
 51
270.0
  0
LINE
  5
D3
330
1F
100
AcDbEntity
  8
OBRYS
100
AcDbLine
 10
42.5615381224
 20
259.3649262097
 30
0.0
 11
42.5615381224
 21
207.3649262097
 31
0.0
  0
LINE
  5
D4
330
1F
100
AcDbEntity
  8
OBRYS
100
AcDbLine
 10
61.3615381224
 20
208.0649262097
 30
0.0
 11
61.3615381224
 21
211.5649262097
 31
0.0
  0
HATCH
  5
D5
330
1F
100
AcDbEntity
  8
SRAFY
100
AcDbHatch
 10
0.0
 20
0.0
 30
0.0
210
0.0
220
0.0
230
1.0
  2
SOLID
 70
     1
 71
     0
 91
        1
 92
        0
 93
       31
 72
     2
 10
41.86153812242617
 20
207.6649262097339
 40
0.7
 50
0.0
 51
90.0
 73
     1
 72
     1
 10
41.86153812242617
 20
208.3649262097339
 11
41.76153812242617
 21
208.3649262097339
 72
     2
 10
41.76153812242617
 20
207.6649262097339
 40
0.7
 50
90.0
 51
180.0
 73
     1
 72
     1
 10
41.06153812242618
 20
207.6649262097339
 11
41.06153812242618
 21
206.8649262097339
 72
     1
 10
41.06153812242618
 20
206.8649262097339
 11
36.81153812242618
 21
206.8649262097339
 72
     1
 10
36.81153812242618
 20
206.8649262097339
 11
36.81153812242618
 21
259.8649262097339
 72
     1
 10
36.81153812242618
 20
259.8649262097339
 11
41.06153812242618
 21
259.8649262097339
 72
     1
 10
41.06153812242618
 20
259.8649262097339
 11
41.06153812242618
 21
259.0649262097339
 72
     2
 10
41.76153812242617
 20
259.0649262097339
 40
0.7
 50
180.0
 51
270.0000000000008
 73
     1
 72
     1
 10
41.76153812242617
 20
258.3649262097339
 11
41.86153812242617
 21
258.3649262097339
 72
     2
 10
41.86153812242617
 20
259.0649262097339
 40
0.7
 50
270.0000000000008
 51
360.0000000000008
 73
     1
 72
     1
 10
42.56153812242618
 20
259.0649262097339
 11
42.56153812242618
 21
259.8649262097339
 72
     1
 10
42.56153812242618
 20
259.8649262097339
 11
46.06153812242616
 21
259.8649262097339
 72
     1
 10
46.06153812242616
 20
259.8649262097339
 11
46.06153812242616
 21
259.0649262097339
 72
     2
 10
46.76153812242617
 20
259.0649262097339
 40
0.7
 50
180.0
 51
270.0000000000008
 73
     1
 72
     1
 10
46.76153812242617
 20
258.3649262097339
 11
46.86153812242616
 21
258.3649262097339
 72
     2
 10
46.86153812242616
 20
259.0649262097339
 40
0.7
 50
270.0000000000008
 51
360.0000000000008
 73
     1
 72
     1
 10
47.56153812242616
 20
259.0649262097339
 11
47.56153812242616
 21
260.4149262097339
 72
     2
 10
46.86153812242616
 20
260.4149262097339
 40
0.7
 50
0.0
 51
90.0
 73
     1
 72
     1
 10
46.86153812242616
 20
261.1149262097339
 11
36.26153812242617
 21
261.1149262097339
 72
     2
 10
36.26153812242617
 20
260.4149262097339
 40
0.7
 50
90.0
 51
180.0
 73
     1
 72
     1
 10
35.56153812242618
 20
260.4149262097339
 11
35.56153812242618
 21
206.3149262097339
 72
     2
 10
36.26153812242617
 20
206.3149262097339
 40
0.7
 50
180.0
 51
270.0000000000008
 73
     1
 72
     1
 10
36.26153812242617
 20
205.6149262097339
 11
64.06153812242619
 21
205.6149262097339
 72
     2
 10
64.06153812242619
 20
206.1149262097339
 40
0.5
 50
270.0000000000008
 51
360.0000000000008
 73
     1
 72
     1
 10
64.56153812242619
 20
206.1149262097339
 11
64.56153812242619
 21
206.8649262097339
 72
     1
 10
64.56153812242619
 20
206.8649262097339
 11
63.41509151301944
 21
208.0113728191406
 72
     2
 10
63.06153812242618
 20
207.6578194285473
 40
0.5
 50
44.99999999999885
 51
180.0
 73
     1
 72
     1
 10
62.56153812242618
 20
207.6578194285473
 11
62.56153812242618
 21
206.8649262097339
 72
     1
 10
62.56153812242618
 20
206.8649262097339
 11
42.56153812242616
 21
206.8649262097339
 72
     1
 10
42.56153812242616
 20
206.8649262097339
 11
42.56153812242617
 21
207.6649262097339
 97
        0
 75
     0
 76
     1
 98
        1
 10
0.0
 20
0.0
  0
DIMENSION
  5
D6
330
1F
100
AcDbEntity
  8
KOTY
100
AcDbDimension
  2
*D1
 10
29.5615381224
 20
205.6149262097
 30
0.0
 11
29.5615381224
 21
233.3649262097
 31
0.0
 70
   160
 71
     2
 42
-1.0
  3
SLDDIMSTYLE0
100
AcDbAlignedDimension
 13
36.2615381224
 23
261.1149262097
 33
0.0
 14
36.2615381224
 24
205.6149262097
 34
0.0
 50
90.0
100
AcDbRotatedDimension
  0
DIMENSION
  5
E1
330
1F
100
AcDbEntity
  8
KOTY
100
AcDbDimension
  2
*D2
 10
64.5615381224
 20
193.6149262097
 30
0.0
 11
50.0615381224
 21
193.6149262097
 31
0.0
 70
   160
 71
     2
 42
-1.0
  3
SLDDIMSTYLE1
100
AcDbAlignedDimension
 13
35.5615381224
 23
206.3149262097
 33
0.0
 14
64.5615381224
 24
206.1149262097
 34
0.0
100
AcDbRotatedDimension
  0
DIMENSION
  5
EC
330
1F
100
AcDbEntity
  8
KOTY
100
AcDbDimension
  2
*D3
 10
64.5615381224
 20
199.6149262097
 30
0.0
 11
53.5615381224
 21
199.6149262097
 31
0.0
 70
   160
 71
     2
 42
-1.0
  3
SLDDIMSTYLE1
100
AcDbAlignedDimension
 13
42.5615381224
 23
207.3649262097
 33
0.0
 14
64.5615381224
 24
206.1149262097
 34
0.0
100
AcDbRotatedDimension
  0
DIMENSION
  5
F6
330
1F
100
AcDbEntity
  8
KOTY
100
AcDbDimension
  2
*D4
 10
35.5615381224
 20
199.6149262097
 30
0.0
 11
27.1951919303
 21
199.6149262097
 31
0.0
 70
   160
 71
     2
 42
-1.0
  3
SLDDIMSTYLE1
100
AcDbAlignedDimension
 13
42.5615381224
 23
207.3649262097
 33
0.0
 14
35.5615381224
 24
206.3149262097
 34
0.0
100
AcDbRotatedDimension
  0
DIMENSION
  5
101
330
1F
100
AcDbEntity
  8
KOTY
100
AcDbDimension
  2
*D5
 10
61.0615381224
 20
267.1149262097
 30
0.0
 11
53.5615381224
 21
267.1149262097
 31
0.0
 70
   160
 71
     2
 42
-1.0
  3
SLDDIMSTYLE2
100
AcDbAlignedDimension
 13
46.0615381224
 23
259.3649262097
 33
0.0
 14
61.0615381224
 24
259.3649262097
 34
0.0
100
AcDbRotatedDimension
  0
DIMENSION
  5
10E
330
1F
100
AcDbEntity
  8
KOTY
100
AcDbDimension
  2
*D6
 10
70.5615381224
 20
206.8649262097
 30
0.0
 11
70.5615381224
 21
233.3649262097
 31
0.0
 70
   160
 71
     2
 42
-1.0
  3
SLDDIMSTYLE1
100
AcDbAlignedDimension
 13
64.0615381224
 23
259.8649262097
 33
0.0
 14
62.5615381224
 24
206.8649262097
 34
0.0
 50
90.0
100
AcDbRotatedDimension
  0
ARC
  5
118
330
1F
100
AcDbEntity
  8
OBRYS
100
AcDbCircle
 10
169.61678962
 20
119.3288183404
 30
0.0
 40
0.3000000000000398
100
AcDbArc
 50
270.0
 51
0.0
  0
ARC
  5
119
330
1F
100
AcDbEntity
  8
OBRYS
100
AcDbCircle
 10
152.31678962
 20
172.9288183404
 30
0.0
 40
0.6000000000000227
100
AcDbArc
 50
270.0
 51
0.0
  0
ARC
  5
11A
330
1F
100
AcDbEntity
  8
OBRYS
100
AcDbCircle
 10
152.01678962
 20
172.9288183404
 30
0.0
 40
0.6000000000000227
100
AcDbArc
 50
180.0
 51
270.0
  0
ARC
  5
11B
330
1F
100
AcDbEntity
  8
OBRYS
100
AcDbCircle
 10
147.31678962
 20
169.8676772687
 30
0.0
 40
0.5999999999999943
100
AcDbArc
 50
270.0
 51
0.0
  0
ARC
  5
11C
330
1F
100
AcDbEntity
  8
OBRYS
100
AcDbCircle
 10
147.01678962
 20
169.8676772687
 30
0.0
 40
0.6000000000000227
100
AcDbArc
 50
180.0
 51
270.0
  0
ARC
  5
11D
330
1F
100
AcDbEntity
  8
OBRYS
100
AcDbCircle
 10
147.01678962
 20
124.1899594122
 30
0.0
 40
0.6000000000000227
100
AcDbArc
 50
90.0
 51
180.0
  0
ARC
  5
11E
330
1F
100
AcDbEntity
  8
OBRYS
100
AcDbCircle
 10
147.31678962
 20
124.1899594122
 30
0.0
 40
0.5999999999999943
100
AcDbArc
 50
0.0
 51
90.0
  0
ARC
  5
11F
330
1F
100
AcDbEntity
  8
OBRYS
100
AcDbCircle
 10
168.21678962
 20
121.8045542717
 30
0.0
 40
0.2999999999999944
100
AcDbArc
 50
45.0
 51
180.0
  0
LINE
  5
120
330
1F
100
AcDbEntity
  8
OBRYS
100
AcDbLine
 10
167.9167892326
 20
121.8045542477
 30
0.0
 11
167.9167892326
 21
120.5288183404
 31
0.0
  0
LINE
  5
121
330
1F
100
AcDbEntity
  8
OBRYS
100
AcDbLine
 10
167.9167892326
 20
120.5288183404
 30
0.0
 11
147.9167896796
 21
120.5288183404
 31
0.0
  0
LINE
  5
122
330
1F
100
AcDbEntity
  8
OBRYS
100
AcDbLine
 10
147.9167896796
 20
120.5288183404
 30
0.0
 11
147.9167896796
 21
124.1899593728
 31
0.0
  0
LINE
  5
123
330
1F
100
AcDbEntity
  8
OBRYS
100
AcDbLine
 10
147.3167897675
 20
124.7899595177
 30
0.0
 11
147.0167893458
 21
124.7899595177
 31
0.0
  0
LINE
  5
124
330
1F
100
AcDbEntity
  8
OBRYS
100
AcDbLine
 10
146.4167894337
 20
124.1899593728
 30
0.0
 11
146.4167894337
 21
121.7899593752
 31
0.0
  0
ARC
  5
125
330
1F
100
AcDbEntity
  8
OBRYS
100
AcDbCircle
 10
164.41678962
 20
147.0288183404
 30
0.0
 40
31.00000000000002
100
AcDbArc
 50
125.4959326503
 51
234.5040673497
  0
LINE
  5
126
330
1F
100
AcDbEntity
  8
OBRYS
100
AcDbLine
 10
146.4167894337
 20
172.2676765634
 30
0.0
 11
146.4167894337
 21
169.8676769151
 31
0.0
  0
LINE
  5
127
330
1F
100
AcDbEntity
  8
OBRYS
100
AcDbLine
 10
147.0167893458
 20
169.2676779343
 30
0.0
 11
147.3167897675
 21
169.2676779343
 31
0.0
  0
LINE
  5
128
330
1F
100
AcDbEntity
  8
OBRYS
100
AcDbLine
 10
147.9167896796
 20
169.8676769151
 30
0.0
 11
147.9167896796
 21
173.5288177146
 31
0.0
  0
LINE
  5
129
330
1F
100
AcDbEntity
  8
OBRYS
100
AcDbLine
 10
147.9167896796
 20
173.5288177146
 30
0.0
 11
151.4167897876
 21
173.5288177146
 31
0.0
  0
LINE
  5
12A
330
1F
100
AcDbEntity
  8
OBRYS
100
AcDbLine
 10
151.4167897876
 20
173.5288177146
 30
0.0
 11
151.4167897876
 21
172.9288187338
 31
0.0
  0
LINE
  5
12B
330
1F
100
AcDbEntity
  8
OBRYS
100
AcDbLine
 10
152.0167896997
 20
172.3288197531
 30
0.0
 11
152.3167896558
 21
172.3288197531
 31
0.0
  0
LINE
  5
12C
330
1F
100
AcDbEntity
  8
OBRYS
100
AcDbLine
 10
152.9167895678
 20
172.9288187338
 30
0.0
 11
152.9167895678
 21
175.0288170291
 31
0.0
  0
LINE
  5
12D
330
1F
100
AcDbEntity
  8
OBRYS
100
AcDbLine
 10
152.9167895678
 20
175.0288170291
 30
0.0
 11
147.9167896796
 21
175.0288170291
 31
0.0
  0
ARC
  5
12E
330
1F
100
AcDbEntity
  8
OBRYS
100
AcDbCircle
 10
164.41678962
 20
147.0288183404
 30
0.0
 40
32.50000000000001
100
AcDbArc
 50
120.5102374061
 51
239.4897625939
  0
LINE
  5
12F
330
1F
100
AcDbEntity
  8
OBRYS
100
AcDbLine
 10
147.9167896796
 20
119.0288183274
 30
0.0
 11
169.61679007
 21
119.0288183274
 31
0.0
  0
LINE
  5
130
330
1F
100
AcDbEntity
  8
OBRYS
100
AcDbLine
 10
169.9167895604
 20
119.3288182834
 30
0.0
 11
169.9167895604
 21
120.5288183404
 31
0.0
  0
LINE
  5
131
330
1F
100
AcDbEntity
  8
OBRYS
100
AcDbLine
 10
169.9167895604
 20
120.5288183404
 30
0.0
 11
168.4289216537
 21
122.0166863635
 31
0.0
  0
ARC
  5
132
330
1F
100
AcDbEntity
  8
OBRYS
100
AcDbCircle
 10
167.21678962
 20
142.9288183404
 30
0.0
 40
0.5
100
AcDbArc
 50
90.0
 51
180.0
  0
LINE
  5
133
330
1F
100
AcDbEntity
  8
OBRYS
100
AcDbLine
 10
167.2167894904
 20
143.428818555
 30
0.0
 11
168.7167897362
 21
143.428818555
 31
0.0
  0
LINE
  5
134
330
1F
100
AcDbEntity
  8
OBRYS
100
AcDbLine
 10
168.7167897362
 20
143.428818555
 30
0.0
 11
168.7167897362
 21
146.2288175238
 31
0.0
  0
LINE
  5
135
330
1F
100
AcDbEntity
  8
OBRYS
100
AcDbLine
 10
168.7167897362
 20
146.2288175238
 30
0.0
 11
149.1167895038
 21
146.2288175238
 31
0.0
  0
LINE
  5
136
330
1F
100
AcDbEntity
  8
OBRYS
100
AcDbLine
 10
149.1167895038
 20
146.2288175238
 30
0.0
 11
149.1167895038
 21
143.428818555
 31
0.0
  0
LINE
  5
137
330
1F
100
AcDbEntity
  8
OBRYS
100
AcDbLine
 10
149.1167895038
 20
143.428818555
 30
0.0
 11
150.6167897496
 21
143.428818555
 31
0.0
  0
ARC
  5
138
330
1F
100
AcDbEntity
  8
OBRYS
100
AcDbCircle
 10
150.61678962
 20
142.9288183404
 30
0.0
 40
0.5
100
AcDbArc
 50
0.0
 51
90.0
  0
LINE
  5
139
330
1F
100
AcDbEntity
  8
OBRYS
100
AcDbLine
 10
151.1167898316
 20
142.9288175417
 30
0.0
 11
151.1167898316
 21
142.7288178815
 31
0.0
  0
ARC
  5
13A
330
1F
100
AcDbEntity
  8
OBRYS
100
AcDbCircle
 10
150.61678962
 20
142.7288183404
 30
0.0
 40
0.5
100
AcDbArc
 50
270.0
 51
0.0
  0
LINE
  5
13B
330
1F
100
AcDbEntity
  8
OBRYS
100
AcDbLine
 10
150.6167897496
 20
142.2288187308
 30
0.0
 11
149.1167895038
 21
142.2288187308
 31
0.0
  0
LINE
  5
13C
330
1F
100
AcDbEntity
  8
OBRYS
100
AcDbLine
 10
149.1167895038
 20
142.2288187308
 30
0.0
 11
149.1167895038
 21
125.7288183546
 31
0.0
  0
LINE
  5
13D
330
1F
100
AcDbEntity
  8
OBRYS
100
AcDbLine
 10
149.1167895038
 20
125.7288183546
 30
0.0
 11
150.6167897496
 21
125.7288183546
 31
0.0
  0
ARC
  5
13E
330
1F
100
AcDbEntity
  8
OBRYS
100
AcDbCircle
 10
150.61678962
 20
125.2288183404
 30
0.0
 40
0.5
100
AcDbArc
 50
0.0
 51
90.0
  0
LINE
  5
13F
330
1F
100
AcDbEntity
  8
OBRYS
100
AcDbLine
 10
151.1167898316
 20
125.2288182726
 30
0.0
 11
151.1167898316
 21
125.0288181467
 31
0.0
  0
ARC
  5
140
330
1F
100
AcDbEntity
  8
OBRYS
100
AcDbCircle
 10
150.61678962
 20
125.0288183404
 30
0.0
 40
0.5000000000000142
100
AcDbArc
 50
270.0
 51
0.0
  0
LINE
  5
141
330
1F
100
AcDbEntity
  8
OBRYS
100
AcDbLine
 10
150.6167897496
 20
124.5288185304
 30
0.0
 11
149.1167895038
 21
124.5288185304
 31
0.0
  0
LINE
  5
142
330
1F
100
AcDbEntity
  8
OBRYS
100
AcDbLine
 10
149.1167895038
 20
124.5288185304
 30
0.0
 11
149.1167895038
 21
121.7288183974
 31
0.0
  0
LINE
  5
143
330
1F
100
AcDbEntity
  8
OBRYS
100
AcDbLine
 10
149.1167895038
 20
121.7288183974
 30
0.0
 11
166.7167894084
 21
121.7288183974
 31
0.0
  0
ARC
  5
144
330
1F
100
AcDbEntity
  8
OBRYS
100
AcDbCircle
 10
167.21678962
 20
125.2288183404
 30
0.0
 40
0.5
100
AcDbArc
 50
90.0
 51
180.0
  0
LINE
  5
145
330
1F
100
AcDbEntity
  8
OBRYS
100
AcDbLine
 10
167.2167894904
 20
125.7288183546
 30
0.0
 11
168.7167897362
 21
125.7288183546
 31
0.0
  0
LINE
  5
146
330
1F
100
AcDbEntity
  8
OBRYS
100
AcDbLine
 10
168.7167897362
 20
125.7288183546
 30
0.0
 11
168.7167897362
 21
142.2288187308
 31
0.0
  0
LINE
  5
147
330
1F
100
AcDbEntity
  8
OBRYS
100
AcDbLine
 10
168.7167897362
 20
142.2288187308
 30
0.0
 11
167.2167894904
 21
142.2288187308
 31
0.0
  0
ARC
  5
148
330
1F
100
AcDbEntity
  8
OBRYS
100
AcDbCircle
 10
167.21678962
 20
142.7288183404
 30
0.0
 40
0.5
100
AcDbArc
 50
180.0
 51
270.0
  0
LINE
  5
149
330
1F
100
AcDbEntity
  8
OBRYS
100
AcDbLine
 10
166.7167894084
 20
142.7288178815
 30
0.0
 11
166.7167894084
 21
142.9288175417
 31
0.0
  0
ARC
  5
14A
330
1F
100
AcDbEntity
  8
OBRYS
100
AcDbCircle
 10
148.41678962
 20
173.0288183404
 30
0.0
 40
0.5
100
AcDbArc
 50
90.0
 51
180.0
  0
LINE
  5
14B
330
1F
100
AcDbEntity
  8
OBRYS
100
AcDbLine
 10
150.91678924
 20
173.5288177146
 30
0.0
 11
148.4167897616
 21
173.5288177146
 31
0.0
  0
ARC
  5
14C
330
1F
100
AcDbEntity
  8
OBRYS
100
AcDbCircle
 10
150.91678962
 20
173.0288183404
 30
0.0
 40
0.5
100
AcDbArc
 50
0.0
 51
90.0
  0
LINE
  5
14D
330
1F
100
AcDbEntity
  8
OBRYS
100
AcDbLine
 10
151.4167897876
 20
171.6288190795
 30
0.0
 11
151.4167897876
 21
173.0288167013
 31
0.0
  0
ARC
  5
14E
330
1F
100
AcDbEntity
  8
OBRYS
100
AcDbCircle
 10
150.91678962
 20
171.6288183404
 30
0.0
 40
0.5
100
AcDbArc
 50
270.0
 51
0.0
  0
LINE
  5
14F
330
1F
100
AcDbEntity
  8
OBRYS
100
AcDbLine
 10
150.7167895798
 20
171.1288180662
 30
0.0
 11
150.91678924
 21
171.1288180662
 31
0.0
  0
ARC
  5
150
330
1F
100
AcDbEntity
  8
OBRYS
100
AcDbCircle
 10
150.71678962
 20
171.6288183404
 30
0.0
 40
0.5
100
AcDbArc
 50
180.0
 51
270.0
  0
LINE
  5
151
330
1F
100
AcDbEntity
  8
OBRYS
100
AcDbLine
 10
150.2167894978
 20
171.8288187398
 30
0.0
 11
150.2167894978
 21
171.6288190795
 31
0.0
  0
ARC
  5
152
330
1F
100
AcDbEntity
  8
OBRYS
100
AcDbCircle
 10
149.71678962
 20
171.8288183404
 30
0.0
 40
0.5
100
AcDbArc
 50
0.0
 51
90.0
  0
LINE
  5
153
330
1F
100
AcDbEntity
  8
OBRYS
100
AcDbLine
 10
149.6167895857
 20
172.3288197531
 30
0.0
 11
149.7167894158
 21
172.3288197531
 31
0.0
  0
ARC
  5
154
330
1F
100
AcDbEntity
  8
OBRYS
100
AcDbCircle
 10
149.61678962
 20
171.8288183404
 30
0.0
 40
0.5
100
AcDbArc
 50
90.0
 51
180.0
  0
LINE
  5
155
330
1F
100
AcDbEntity
  8
OBRYS
100
AcDbLine
 10
149.1167895038
 20
167.4288187636
 30
0.0
 11
149.1167895038
 21
171.8288187398
 31
0.0
  0
ARC
  5
156
330
1F
100
AcDbEntity
  8
OBRYS
100
AcDbCircle
 10
149.61678962
 20
167.4288183404
 30
0.0
 40
0.5
100
AcDbArc
 50
180.0
 51
270.0
  0
LINE
  5
157
330
1F
100
AcDbEntity
  8
OBRYS
100
AcDbLine
 10
149.7167894158
 20
166.9288177503
 30
0.0
 11
149.6167895857
 21
166.9288177503
 31
0.0
  0
ARC
  5
158
330
1F
100
AcDbEntity
  8
OBRYS
100
AcDbCircle
 10
149.71678962
 20
167.4288183404
 30
0.0
 40
0.5
100
AcDbArc
 50
270.0
 51
0.0
  0
LINE
  5
159
330
1F
100
AcDbEntity
  8
OBRYS
100
AcDbLine
 10
150.2167894978
 20
167.6288184239
 30
0.0
 11
150.2167894978
 21
167.4288187636
 31
0.0
  0
ARC
  5
15A
330
1F
100
AcDbEntity
  8
OBRYS
100
AcDbCircle
 10
150.71678962
 20
167.6288183404
 30
0.0
 40
0.5
100
AcDbArc
 50
90.0
 51
180.0
  0
LINE
  5
15B
330
1F
100
AcDbEntity
  8
OBRYS
100
AcDbLine
 10
150.91678924
 20
168.1288194372
 30
0.0
 11
150.7167895798
 21
168.1288194372
 31
0.0
  0
ARC
  5
15C
330
1F
100
AcDbEntity
  8
OBRYS
100
AcDbCircle
 10
150.91678962
 20
167.6288183404
 30
0.0
 40
0.5
100
AcDbArc
 50
0.0
 51
90.0
  0
LINE
  5
15D
330
1F
100
AcDbEntity
  8
OBRYS
100
AcDbLine
 10
151.4167897876
 20
166.2288170768
 30
0.0
 11
151.4167897876
 21
167.6288184239
 31
0.0
  0
ARC
  5
15E
330
1F
100
AcDbEntity
  8
OBRYS
100
AcDbCircle
 10
150.91678962
 20
166.2288183404
 30
0.0
 40
0.5
100
AcDbArc
 50
270.0
 51
0.0
  0
LINE
  5
15F
330
1F
100
AcDbEntity
  8
OBRYS
100
AcDbLine
 10
149.6167895857
 20
165.7288197888
 30
0.0
 11
150.91678924
 21
165.7288197888
 31
0.0
  0
ARC
  5
160
330
1F
100
AcDbEntity
  8
OBRYS
100
AcDbCircle
 10
149.61678962
 20
165.2288183404
 30
0.0
 40
0.5
100
AcDbArc
 50
90.0
 51
180.0
  0
LINE
  5
161
330
1F
100
AcDbEntity
  8
OBRYS
100
AcDbLine
 10
149.1167895038
 20
148.3288176818
 30
0.0
 11
149.1167895038
 21
165.2288187755
 31
0.0
  0
ARC
  5
162
330
1F
100
AcDbEntity
  8
OBRYS
100
AcDbCircle
 10
150.11678962
 20
148.3288183404
 30
0.0
 40
1.0
100
AcDbArc
 50
180.0
 51
270.0
  0
LINE
  5
163
330
1F
100
AcDbEntity
  8
OBRYS
100
AcDbLine
 10
167.7167895723
 20
147.3288175179
 30
0.0
 11
150.1167896677
 21
147.3288175179
 31
0.0
  0
ARC
  5
164
330
1F
100
AcDbEntity
  8
OBRYS
100
AcDbCircle
 10
167.71678962
 20
148.3288183404
 30
0.0
 40
1.0
100
AcDbArc
 50
270.0
 51
0.0
  0
LINE
  5
165
330
1F
100
AcDbEntity
  8
OBRYS
100
AcDbLine
 10
168.7167897362
 20
165.2288187755
 30
0.0
 11
168.7167897362
 21
148.3288176818
 31
0.0
  0
ARC
  5
166
330
1F
100
AcDbEntity
  8
OBRYS
100
AcDbCircle
 10
168.21678962
 20
165.2288183404
 30
0.0
 40
0.5
100
AcDbArc
 50
0.0
 51
90.0
  0
LINE
  5
167
330
1F
100
AcDbEntity
  8
OBRYS
100
AcDbLine
 10
166.91679
 20
165.7288197888
 30
0.0
 11
168.2167896543
 21
165.7288197888
 31
0.0
  0
ARC
  5
168
330
1F
100
AcDbEntity
  8
OBRYS
100
AcDbCircle
 10
166.91678962
 20
166.2288183404
 30
0.0
 40
0.5
100
AcDbArc
 50
180.0
 51
270.0
  0
LINE
  5
169
330
1F
100
AcDbEntity
  8
OBRYS
100
AcDbLine
 10
166.4167894524
 20
167.6288184239
 30
0.0
 11
166.4167894524
 21
166.2288170768
 31
0.0
  0
ARC
  5
16A
330
1F
100
AcDbEntity
  8
OBRYS
100
AcDbCircle
 10
166.91678962
 20
167.6288183404
 30
0.0
 40
0.5
100
AcDbArc
 50
90.0
 51
180.0
  0
LINE
  5
16B
330
1F
100
AcDbEntity
  8
OBRYS
100
AcDbLine
 10
167.1167896602
 20
168.1288194372
 30
0.0
 11
166.91679
 21
168.1288194372
 31
0.0
  0
ARC
  5
16C
330
1F
100
AcDbEntity
  8
OBRYS
100
AcDbCircle
 10
167.11678962
 20
167.6288183404
 30
0.0
 40
0.5
100
AcDbArc
 50
0.0
 51
90.0
  0
LINE
  5
16D
330
1F
100
AcDbEntity
  8
OBRYS
100
AcDbLine
 10
167.6167897422
 20
167.4288187636
 30
0.0
 11
167.6167897422
 21
167.6288184239
 31
0.0
  0
ARC
  5
16E
330
1F
100
AcDbEntity
  8
OBRYS
100
AcDbCircle
 10
168.11678962
 20
167.4288183404
 30
0.0
 40
0.5
100
AcDbArc
 50
180.0
 51
270.0
  0
LINE
  5
16F
330
1F
100
AcDbEntity
  8
OBRYS
100
AcDbLine
 10
168.2167896543
 20
166.9288177503
 30
0.0
 11
168.1167898241
 21
166.9288177503
 31
0.0
  0
ARC
  5
170
330
1F
100
AcDbEntity
  8
OBRYS
100
AcDbCircle
 10
168.21678962
 20
167.4288183404
 30
0.0
 40
0.5
100
AcDbArc
 50
270.0
 51
0.0
  0
LINE
  5
171
330
1F
100
AcDbEntity
  8
OBRYS
100
AcDbLine
 10
168.7167897362
 20
171.8288187398
 30
0.0
 11
168.7167897362
 21
167.4288187636
 31
0.0
  0
ARC
  5
172
330
1F
100
AcDbEntity
  8
OBRYS
100
AcDbCircle
 10
168.21678962
 20
171.8288183404
 30
0.0
 40
0.5
100
AcDbArc
 50
0.0
 51
90.0
  0
LINE
  5
173
330
1F
100
AcDbEntity
  8
OBRYS
100
AcDbLine
 10
168.1167898241
 20
172.3288197531
 30
0.0
 11
168.2167896543
 21
172.3288197531
 31
0.0
  0
ARC
  5
174
330
1F
100
AcDbEntity
  8
OBRYS
100
AcDbCircle
 10
168.11678962
 20
171.8288183404
 30
0.0
 40
0.5
100
AcDbArc
 50
90.0
 51
180.0
  0
LINE
  5
175
330
1F
100
AcDbEntity
  8
OBRYS
100
AcDbLine
 10
167.6167897422
 20
171.6288190795
 30
0.0
 11
167.6167897422
 21
171.8288187398
 31
0.0
  0
ARC
  5
176
330
1F
100
AcDbEntity
  8
OBRYS
100
AcDbCircle
 10
167.11678962
 20
171.6288183404
 30
0.0
 40
0.5
100
AcDbArc
 50
270.0
 51
0.0
  0
LINE
  5
177
330
1F
100
AcDbEntity
  8
OBRYS
100
AcDbLine
 10
166.91679
 20
171.1288180662
 30
0.0
 11
167.1167896602
 21
171.1288180662
 31
0.0
  0
ARC
  5
178
330
1F
100
AcDbEntity
  8
OBRYS
100
AcDbCircle
 10
166.91678962
 20
171.6288183404
 30
0.0
 40
0.5
100
AcDbArc
 50
180.0
 51
270.0
  0
LINE
  5
179
330
1F
100
AcDbEntity
  8
OBRYS
100
AcDbLine
 10
166.4167894524
 20
173.0288167013
 30
0.0
 11
166.4167894524
 21
171.6288190795
 31
0.0
  0
ARC
  5
17A
330
1F
100
AcDbEntity
  8
OBRYS
100
AcDbCircle
 10
166.91678962
 20
173.0288183404
 30
0.0
 40
0.5
100
AcDbArc
 50
90.0
 51
180.0
  0
LINE
  5
17B
330
1F
100
AcDbEntity
  8
OBRYS
100
AcDbLine
 10
169.4167894784
 20
173.5288177146
 30
0.0
 11
166.91679
 21
173.5288177146
 31
0.0
  0
ARC
  5
17C
330
1F
100
AcDbEntity
  8
OBRYS
100
AcDbCircle
 10
169.41678962
 20
173.0288183404
 30
0.0
 40
0.5
100
AcDbArc
 50
0.0
 51
90.0
  0
LINE
  5
17D
330
1F
100
AcDbEntity
  8
OBRYS
100
AcDbLine
 10
169.9167895604
 20
125.0288181467
 30
0.0
 11
169.9167895604
 21
173.0288167013
 31
0.0
  0
ARC
  5
17E
330
1F
100
AcDbEntity
  8
OBRYS
100
AcDbCircle
 10
169.41678962
 20
125.0288183404
 30
0.0
 40
0.5
100
AcDbArc
 50
270.0
 51
0.0
  0
LINE
  5
17F
330
1F
100
AcDbEntity
  8
OBRYS
100
AcDbLine
 10
168.4167893145
 20
124.5288185304
 30
0.0
 11
169.4167894784
 21
124.5288185304
 31
0.0
  0
ARC
  5
180
330
1F
100
AcDbEntity
  8
OBRYS
100
AcDbCircle
 10
168.41678962
 20
124.0288183404
 30
0.0
 40
0.5
100
AcDbArc
 50
90.0
 51
180.0
  0
LINE
  5
181
330
1F
100
AcDbEntity
  8
OBRYS
100
AcDbLine
 10
167.9167892326
 20
121.0288183642
 30
0.0
 11
167.9167892326
 21
124.0288184485
 31
0.0
  0
ARC
  5
182
330
1F
100
AcDbEntity
  8
OBRYS
100
AcDbCircle
 10
167.41678962
 20
121.0288183404
 30
0.0
 40
0.5
100
AcDbArc
 50
270.0
 51
0.0
  0
LINE
  5
183
330
1F
100
AcDbEntity
  8
OBRYS
100
AcDbLine
 10
148.4167897616
 20
120.5288183404
 30
0.0
 11
167.4167900819
 21
120.5288183404
 31
0.0
  0
ARC
  5
184
330
1F
100
AcDbEntity
  8
OBRYS
100
AcDbCircle
 10
148.41678962
 20
121.0288183404
 30
0.0
 40
0.5
100
AcDbArc
 50
180.0
 51
270.0
  0
LINE
  5
185
330
1F
100
AcDbEntity
  8
OBRYS
100
AcDbLine
 10
147.9167896796
 20
173.0288167013
 30
0.0
 11
147.9167896796
 21
121.0288183642
 31
0.0
  0
LINE
  5
186
330
1F
100
AcDbEntity
  8
OBRYS
100
AcDbLine
 10
166.7167894084
 20
121.7288183974
 30
0.0
 11
166.7167894084
 21
125.2288182726
 31
0.0
  0
HATCH
  5
187
330
1F
100
AcDbEntity
  8
SRAFY
100
AcDbHatch
 10
0.0
 20
0.0
 30
0.0
210
0.0
220
0.0
230
1.0
  2
SOLID
 70
     1
 71
     0
 91
        1
 92
        0
 93
       26
 72
     1
 10
169.9167896199946
 20
119.3288183404304
 11
169.9167896199946
 21
120.5288183404304
 72
     1
 10
169.9167896199946
 20
120.5288183404304
 11
168.4289216543506
 21
122.0166863060745
 72
     2
 10
168.2167896199946
 20
121.8045542717185
 40
0.3
 50
45.00000000000192
 51
180.0
 73
     1
 72
     1
 10
167.9167896199946
 20
121.8045542717185
 11
167.9167896199946
 21
120.5288183404304
 72
     1
 10
167.9167896199946
 20
120.5288183404304
 11
147.9167896199946
 21
120.5288183404304
 72
     1
 10
147.9167896199946
 20
120.5288183404304
 11
147.9167896199946
 21
124.1899594121825
 72
     2
 10
147.3167896199946
 20
124.1899594121825
 40
0.6
 50
0.0
 51
90.0
 73
     1
 72
     1
 10
147.3167896199946
 20
124.7899594121825
 11
147.0167896199946
 21
124.7899594121825
 72
     2
 10
147.0167896199946
 20
124.1899594121825
 40
0.6
 50
90.0
 51
180.0
 73
     1
 72
     1
 10
146.4167896199946
 20
124.1899594121825
 11
146.4167896199946
 21
121.7899594121825
 72
     2
 10
164.4167896199946
 20
147.0288183404304
 40
31.0
 50
125.4959326502517
 51
234.5040673497492
 73
     0
 72
     1
 10
146.4167896199946
 20
172.2676772686784
 11
146.4167896199946
 21
169.8676772686784
 72
     2
 10
147.0167896199946
 20
169.8676772686784
 40
0.6
 50
180.0
 51
270.0000000000008
 73
     1
 72
     1
 10
147.0167896199946
 20
169.2676772686784
 11
147.3167896199946
 21
169.2676772686784
 72
     2
 10
147.3167896199946
 20
169.8676772686784
 40
0.6
 50
270.0000000000008
 51
360.0000000000008
 73
     1
 72
     1
 10
147.9167896199946
 20
169.8676772686784
 11
147.9167896199946
 21
173.5288183404304
 72
     1
 10
147.9167896199946
 20
173.5288183404304
 11
151.4167896199946
 21
173.5288183404304
 72
     1
 10
151.4167896199946
 20
173.5288183404304
 11
151.4167896199946
 21
172.9288183404304
 72
     2
 10
152.0167896199946
 20
172.9288183404304
 40
0.6
 50
180.0
 51
270.0000000000008
 73
     1
 72
     1
 10
152.0167896199946
 20
172.3288183404304
 11
152.3167896199946
 21
172.3288183404304
 72
     2
 10
152.3167896199946
 20
172.9288183404304
 40
0.6
 50
270.0000000000008
 51
360.0000000000008
 73
     1
 72
     1
 10
152.9167896199946
 20
172.9288183404304
 11
152.9167896199946
 21
175.0288183404304
 72
     1
 10
152.9167896199946
 20
175.0288183404304
 11
147.9167896199946
 21
175.0288183404304
 72
     2
 10
164.4167896199946
 20
147.0288183404304
 40
32.5
 50
120.5102374061156
 51
239.4897625938852
 73
     1
 72
     1
 10
147.9167896199946
 20
119.0288183404304
 11
169.6167896199946
 21
119.0288183404304
 72
     2
 10
169.6167896199946
 20
119.3288183404304
 40
0.3
 50
270.0000000000008
 51
360.0000000000008
 73
     1
 97
        0
 75
     0
 76
     1
 98
        1
 10
0.0
 20
0.0
  0
DIMENSION
  5
188
330
1F
100
AcDbEntity
  8
KOTY
100
AcDbDimension
  2
*D7
 10
166.41678962
 20
181.0288183404
 30
0.0
 11
158.6022423853
 21
181.0288183404
 31
0.0
 70
   160
 71
     2
 42
-1.0
  3
SLDDIMSTYLE2
100
AcDbAlignedDimension
 13
151.41678962
 23
173.0288183404
 33
0.0
 14
166.41678962
 24
173.0288183404
 34
0.0
100
AcDbRotatedDimension
  0
DIMENSION
  5
194
330
1F
100
AcDbEntity
  8
KOTY
100
AcDbDimension
  2
*D8
 10
175.91678962
 20
120.5288183404
 30
0.0
 11
175.91678962
 21
147.0288183404
 31
0.0
 70
   160
 71
     2
 42
-1.0
  3
SLDDIMSTYLE1
100
AcDbAlignedDimension
 13
169.41678962
 23
173.5288183404
 33
0.0
 14
167.91678962
 24
120.5288183404
 34
0.0
 50
90.0
100
AcDbRotatedDimension
  0
DIMENSION
  5
19E
330
1F
100
AcDbEntity
  8
KOTY
100
AcDbDimension
  2
*D9
 10
147.91678962
 20
113.0288183404
 30
0.0
 11
158.4489450866
 21
113.0288183404
 31
0.0
 70
   160
 71
     2
 42
-1.0
  3
SLDDIMSTYLE1
100
AcDbAlignedDimension
 13
169.91678962
 23
119.3288183404
 33
0.0
 14
147.91678962
 24
121.0288183404
 34
0.0
100
AcDbRotatedDimension
  0
DIMENSION
  5
1A8
330
1F
100
AcDbEntity
  8
KOTY
100
AcDbDimension
  2
*D10
 10
131.91678962
 20
107.0288183404
 30
0.0
 11
150.91678962
 21
107.0288183404
 31
0.0
 70
   160
 71
     2
 42
-1.0
  3
SLDDIMSTYLE1
100
AcDbAlignedDimension
 13
169.91678962
 23
119.3288183404
 33
0.0
 14
131.91678962
 24
147.0288183404
 34
0.0
100
AcDbRotatedDimension
  0
DIMENSION
  5
1B2
330
1F
100
AcDbEntity
  8
KOTY
100
AcDbDimension
  2
*D11
 10
131.91678962
 20
113.0288183404
 30
0.0
 11
139.4346341797
 21
113.0288183404
 31
0.0
 70
   160
 71
     2
 42
-1.0
  3
SLDDIMSTYLE1
100
AcDbAlignedDimension
 13
147.91678962
 23
121.0288183404
 33
0.0
 14
131.91678962
 24
147.0288183404
 34
0.0
100
AcDbRotatedDimension
  0
DIMENSION
  5
1BC
330
1F
100
AcDbEntity
  8
KOTY
100
AcDbDimension
  2
*D12
 10
125.91678962
 20
119.0288183404
 30
0.0
 11
125.91678962
 21
147.0288183404
 31
0.0
 70
   160
 71
     2
 42
-1.0
  3
SLDDIMSTYLE1
100
AcDbAlignedDimension
 13
147.91678962
 23
175.0288183404
 33
0.0
 14
147.91678962
 24
119.0288183404
 34
0.0
 50
90.0
100
AcDbRotatedDimension
  0
ARC
  5
1C7
330
1F
100
AcDbEntity
  8
OBRYS
100
AcDbCircle
 10
59.8782835072
 20
60.6873001832
 30
0.0
 40
0.5
100
AcDbArc
 50
90.0
 51
180.0
  0
LINE
  5
1C8
330
1F
100
AcDbEntity
  8
OBRYS
100
AcDbLine
 10
59.8782833775
 20
61.1873003977
 30
0.0
 11
61.3782836234
 21
61.1873003977
 31
0.0
  0
LINE
  5
1C9
330
1F
100
AcDbEntity
  8
OBRYS
100
AcDbLine
 10
61.3782836234
 20
61.1873003977
 30
0.0
 11
61.3782836234
 21
63.9872993666
 31
0.0
  0
LINE
  5
1CA
330
1F
100
AcDbEntity
  8
OBRYS
100
AcDbLine
 10
61.3782836234
 20
63.9872993666
 30
0.0
 11
41.7782833909
 21
63.9872993666
 31
0.0
  0
LINE
  5
1CB
330
1F
100
AcDbEntity
  8
OBRYS
100
AcDbLine
 10
41.7782833909
 20
63.9872993666
 30
0.0
 11
41.7782833909
 21
61.1873003977
 31
0.0
  0
LINE
  5
1CC
330
1F
100
AcDbEntity
  8
OBRYS
100
AcDbLine
 10
41.7782833909
 20
61.1873003977
 30
0.0
 11
43.2782836368
 21
61.1873003977
 31
0.0
  0
ARC
  5
1CD
330
1F
100
AcDbEntity
  8
OBRYS
100
AcDbCircle
 10
43.2782835072
 20
60.6873001832
 30
0.0
 40
0.5
100
AcDbArc
 50
0.0
 51
90.0
  0
LINE
  5
1CE
330
1F
100
AcDbEntity
  8
OBRYS
100
AcDbLine
 10
43.7782837188
 20
60.6872993845
 30
0.0
 11
43.7782837188
 21
60.4872997242
 31
0.0
  0
ARC
  5
1CF
330
1F
100
AcDbEntity
  8
OBRYS
100
AcDbCircle
 10
43.2782835072
 20
60.4873001832
 30
0.0
 40
0.5
100
AcDbArc
 50
270.0
 51
0.0
  0
LINE
  5
1D0
330
1F
100
AcDbEntity
  8
OBRYS
100
AcDbLine
 10
43.2782836368
 20
59.9873005736
 30
0.0
 11
41.7782833909
 21
59.9873005736
 31
0.0
  0
LINE
  5
1D1
330
1F
100
AcDbEntity
  8
OBRYS
100
AcDbLine
 10
41.7782833909
 20
59.9873005736
 30
0.0
 11
41.7782833909
 21
43.4873001973
 31
0.0
  0
LINE
  5
1D2
330
1F
100
AcDbEntity
  8
OBRYS
100
AcDbLine
 10
41.7782833909
 20
43.4873001973
 30
0.0
 11
43.2782836368
 21
43.4873001973
 31
0.0
  0
ARC
  5
1D3
330
1F
100
AcDbEntity
  8
OBRYS
100
AcDbCircle
 10
43.2782835072
 20
42.9873001832
 30
0.0
 40
0.5
100
AcDbArc
 50
0.0
 51
90.0
  0
LINE
  5
1D4
330
1F
100
AcDbEntity
  8
OBRYS
100
AcDbLine
 10
43.7782837188
 20
42.9873001154
 30
0.0
 11
43.7782837188
 21
42.7872999894
 31
0.0
  0
ARC
  5
1D5
330
1F
100
AcDbEntity
  8
OBRYS
100
AcDbCircle
 10
43.2782835072
 20
42.7873001832
 30
0.0
 40
0.5
100
AcDbArc
 50
270.0
 51
0.0
  0
LINE
  5
1D6
330
1F
100
AcDbEntity
  8
OBRYS
100
AcDbLine
 10
43.2782836368
 20
42.2873003731
 30
0.0
 11
41.7782833909
 21
42.2873003731
 31
0.0
  0
LINE
  5
1D7
330
1F
100
AcDbEntity
  8
OBRYS
100
AcDbLine
 10
41.7782833909
 20
42.2873003731
 30
0.0
 11
41.7782833909
 21
39.4873002402
 31
0.0
  0
LINE
  5
1D8
330
1F
100
AcDbEntity
  8
OBRYS
100
AcDbLine
 10
41.7782833909
 20
39.4873002402
 30
0.0
 11
59.3782832956
 21
39.4873002402
 31
0.0
  0
LINE
  5
1D9
330
1F
100
AcDbEntity
  8
OBRYS
100
AcDbLine
 10
59.3782832956
 20
39.4873002402
 30
0.0
 11
59.3782832956
 21
42.9873001154
 31
0.0
  0
ARC
  5
1DA
330
1F
100
AcDbEntity
  8
OBRYS
100
AcDbCircle
 10
59.8782835072
 20
42.9873001832
 30
0.0
 40
0.5
100
AcDbArc
 50
90.0
 51
180.0
  0
LINE
  5
1DB
330
1F
100
AcDbEntity
  8
OBRYS
100
AcDbLine
 10
59.8782833775
 20
43.4873001973
 30
0.0
 11
61.3782836234
 21
43.4873001973
 31
0.0
  0
LINE
  5
1DC
330
1F
100
AcDbEntity
  8
OBRYS
100
AcDbLine
 10
61.3782836234
 20
43.4873001973
 30
0.0
 11
61.3782836234
 21
59.9873005736
 31
0.0
  0
LINE
  5
1DD
330
1F
100
AcDbEntity
  8
OBRYS
100
AcDbLine
 10
61.3782836234
 20
59.9873005736
 30
0.0
 11
59.8782833775
 21
59.9873005736
 31
0.0
  0
ARC
  5
1DE
330
1F
100
AcDbEntity
  8
OBRYS
100
AcDbCircle
 10
59.8782835072
 20
60.4873001832
 30
0.0
 40
0.5
100
AcDbArc
 50
180.0
 51
270.0
  0
LINE
  5
1DF
330
1F
100
AcDbEntity
  8
OBRYS
100
AcDbLine
 10
59.3782832956
 20
60.4872997242
 30
0.0
 11
59.3782832956
 21
60.6872993845
 31
0.0
  0
ARC
  5
1E0
330
1F
100
AcDbEntity
  8
OBRYS
100
AcDbCircle
 10
41.0782835072
 20
90.7873001832
 30
0.0
 40
0.5
100
AcDbArc
 50
90.0
 51
180.0
  0
LINE
  5
1E1
330
1F
100
AcDbEntity
  8
OBRYS
100
AcDbLine
 10
43.5782831272
 20
91.2872995573
 30
0.0
 11
41.0782836487
 21
91.2872995573
 31
0.0
  0
ARC
  5
1E2
330
1F
100
AcDbEntity
  8
OBRYS
100
AcDbCircle
 10
43.5782835072
 20
90.7873001832
 30
0.0
 40
0.5
100
AcDbArc
 50
0.0
 51
90.0
  0
LINE
  5
1E3
330
1F
100
AcDbEntity
  8
OBRYS
100
AcDbLine
 10
44.0782836748
 20
89.3873009223
 30
0.0
 11
44.0782836748
 21
90.787298544
 31
0.0
  0
ARC
  5
1E4
330
1F
100
AcDbEntity
  8
OBRYS
100
AcDbCircle
 10
43.5782835072
 20
89.3873001832
 30
0.0
 40
0.5
100
AcDbArc
 50
270.0
 51
0.0
  0
LINE
  5
1E5
330
1F
100
AcDbEntity
  8
OBRYS
100
AcDbLine
 10
43.3782834669
 20
88.887299909
 30
0.0
 11
43.5782831272
 21
88.887299909
 31
0.0
  0
ARC
  5
1E6
330
1F
100
AcDbEntity
  8
OBRYS
100
AcDbCircle
 10
43.3782835072
 20
89.3873001832
 30
0.0
 40
0.5
100
AcDbArc
 50
180.0
 51
270.0
  0
LINE
  5
1E7
330
1F
100
AcDbEntity
  8
OBRYS
100
AcDbLine
 10
42.878283385
 20
89.5873005825
 30
0.0
 11
42.878283385
 21
89.3873009223
 31
0.0
  0
ARC
  5
1E8
330
1F
100
AcDbEntity
  8
OBRYS
100
AcDbCircle
 10
42.3782835072
 20
89.5873001832
 30
0.0
 40
0.5
100
AcDbArc
 50
0.0
 51
90.0
  0
LINE
  5
1E9
330
1F
100
AcDbEntity
  8
OBRYS
100
AcDbLine
 10
42.2782834729
 20
90.0873015958
 30
0.0
 11
42.378283303
 21
90.0873015958
 31
0.0
  0
ARC
  5
1EA
330
1F
100
AcDbEntity
  8
OBRYS
100
AcDbCircle
 10
42.2782835072
 20
89.5873001832
 30
0.0
 40
0.5
100
AcDbArc
 50
90.0
 51
180.0
  0
LINE
  5
1EB
330
1F
100
AcDbEntity
  8
OBRYS
100
AcDbLine
 10
41.7782833909
 20
85.1873006064
 30
0.0
 11
41.7782833909
 21
89.5873005825
 31
0.0
  0
ARC
  5
1EC
330
1F
100
AcDbEntity
  8
OBRYS
100
AcDbCircle
 10
42.2782835072
 20
85.1873001832
 30
0.0
 40
0.5
100
AcDbArc
 50
180.0
 51
270.0
  0
LINE
  5
1ED
330
1F
100
AcDbEntity
  8
OBRYS
100
AcDbLine
 10
42.378283303
 20
84.6872995931
 30
0.0
 11
42.2782834729
 21
84.6872995931
 31
0.0
  0
ARC
  5
1EE
330
1F
100
AcDbEntity
  8
OBRYS
100
AcDbCircle
 10
42.3782835072
 20
85.1873001832
 30
0.0
 40
0.5
100
AcDbArc
 50
270.0
 51
0.0
  0
LINE
  5
1EF
330
1F
100
AcDbEntity
  8
OBRYS
100
AcDbLine
 10
42.878283385
 20
85.3873002666
 30
0.0
 11
42.878283385
 21
85.1873006064
 31
0.0
  0
ARC
  5
1F0
330
1F
100
AcDbEntity
  8
OBRYS
100
AcDbCircle
 10
43.3782835072
 20
85.3873001832
 30
0.0
 40
0.5
100
AcDbArc
 50
90.0
 51
180.0
  0
LINE
  5
1F1
330
1F
100
AcDbEntity
  8
OBRYS
100
AcDbLine
 10
43.5782831272
 20
85.8873012799
 30
0.0
 11
43.3782834669
 21
85.8873012799
 31
0.0
  0
ARC
  5
1F2
330
1F
100
AcDbEntity
  8
OBRYS
100
AcDbCircle
 10
43.5782835072
 20
85.3873001832
 30
0.0
 40
0.5
100
AcDbArc
 50
0.0
 51
90.0
  0
LINE
  5
1F3
330
1F
100
AcDbEntity
  8
OBRYS
100
AcDbLine
 10
44.0782836748
 20
83.9872989195
 30
0.0
 11
44.0782836748
 21
85.3873002666
 31
0.0
  0
ARC
  5
1F4
330
1F
100
AcDbEntity
  8
OBRYS
100
AcDbCircle
 10
43.5782835072
 20
83.9873001832
 30
0.0
 40
0.5
100
AcDbArc
 50
270.0
 51
0.0
  0
LINE
  5
1F5
330
1F
100
AcDbEntity
  8
OBRYS
100
AcDbLine
 10
42.2782834729
 20
83.4873016316
 30
0.0
 11
43.5782831272
 21
83.4873016316
 31
0.0
  0
ARC
  5
1F6
330
1F
100
AcDbEntity
  8
OBRYS
100
AcDbCircle
 10
42.2782835072
 20
82.9873001832
 30
0.0
 40
0.5
100
AcDbArc
 50
90.0
 51
180.0
  0
LINE
  5
1F7
330
1F
100
AcDbEntity
  8
OBRYS
100
AcDbLine
 10
41.7782833909
 20
66.0872995245
 30
0.0
 11
41.7782833909
 21
82.9873006183
 31
0.0
  0
ARC
  5
1F8
330
1F
100
AcDbEntity
  8
OBRYS
100
AcDbCircle
 10
42.7782835072
 20
66.0873001832
 30
0.0
 40
1.0
100
AcDbArc
 50
180.0
 51
270.0
  0
LINE
  5
1F9
330
1F
100
AcDbEntity
  8
OBRYS
100
AcDbLine
 10
60.3782834595
 20
65.0872993606
 30
0.0
 11
42.7782835548
 21
65.0872993606
 31
0.0
  0
ARC
  5
1FA
330
1F
100
AcDbEntity
  8
OBRYS
100
AcDbCircle
 10
60.3782835072
 20
66.0873001832
 30
0.0
 40
1.0
100
AcDbArc
 50
270.0
 51
0.0
  0
LINE
  5
1FB
330
1F
100
AcDbEntity
  8
OBRYS
100
AcDbLine
 10
61.3782836234
 20
82.9873006183
 30
0.0
 11
61.3782836234
 21
66.0872995245
 31
0.0
  0
ARC
  5
1FC
330
1F
100
AcDbEntity
  8
OBRYS
100
AcDbCircle
 10
60.8782835072
 20
82.9873001832
 30
0.0
 40
0.5
100
AcDbArc
 50
0.0
 51
90.0
  0
LINE
  5
1FD
330
1F
100
AcDbEntity
  8
OBRYS
100
AcDbLine
 10
59.5782838871
 20
83.4873016316
 30
0.0
 11
60.8782835414
 21
83.4873016316
 31
0.0
  0
ARC
  5
1FE
330
1F
100
AcDbEntity
  8
OBRYS
100
AcDbCircle
 10
59.5782835072
 20
83.9873001832
 30
0.0
 40
0.5
100
AcDbArc
 50
180.0
 51
270.0
  0
LINE
  5
1FF
330
1F
100
AcDbEntity
  8
OBRYS
100
AcDbLine
 10
59.0782833395
 20
85.3873002666
 30
0.0
 11
59.0782833395
 21
83.9872989195
 31
0.0
  0
ARC
  5
200
330
1F
100
AcDbEntity
  8
OBRYS
100
AcDbCircle
 10
59.5782835072
 20
85.3873001832
 30
0.0
 40
0.5
100
AcDbArc
 50
90.0
 51
180.0
  0
LINE
  5
201
330
1F
100
AcDbEntity
  8
OBRYS
100
AcDbLine
 10
59.7782835474
 20
85.8873012799
 30
0.0
 11
59.5782838871
 21
85.8873012799
 31
0.0
  0
ARC
  5
202
330
1F
100
AcDbEntity
  8
OBRYS
100
AcDbCircle
 10
59.7782835072
 20
85.3873001832
 30
0.0
 40
0.5
100
AcDbArc
 50
0.0
 51
90.0
  0
LINE
  5
203
330
1F
100
AcDbEntity
  8
OBRYS
100
AcDbLine
 10
60.2782836294
 20
85.1873006064
 30
0.0
 11
60.2782836294
 21
85.3873002666
 31
0.0
  0
ARC
  5
204
330
1F
100
AcDbEntity
  8
OBRYS
100
AcDbCircle
 10
60.7782835072
 20
85.1873001832
 30
0.0
 40
0.5
100
AcDbArc
 50
180.0
 51
270.0
  0
LINE
  5
205
330
1F
100
AcDbEntity
  8
OBRYS
100
AcDbLine
 10
60.8782835414
 20
84.6872995931
 30
0.0
 11
60.7782837113
 21
84.6872995931
 31
0.0
  0
ARC
  5
206
330
1F
100
AcDbEntity
  8
OBRYS
100
AcDbCircle
 10
60.8782835072
 20
85.1873001832
 30
0.0
 40
0.5
100
AcDbArc
 50
270.0
 51
0.0
  0
LINE
  5
207
330
1F
100
AcDbEntity
  8
OBRYS
100
AcDbLine
 10
61.3782836234
 20
89.5873005825
 30
0.0
 11
61.3782836234
 21
85.1873006064
 31
0.0
  0
ARC
  5
208
330
1F
100
AcDbEntity
  8
OBRYS
100
AcDbCircle
 10
60.8782835072
 20
89.5873001832
 30
0.0
 40
0.5
100
AcDbArc
 50
0.0
 51
90.0
  0
LINE
  5
209
330
1F
100
AcDbEntity
  8
OBRYS
100
AcDbLine
 10
60.7782837113
 20
90.0873015958
 30
0.0
 11
60.8782835414
 21
90.0873015958
 31
0.0
  0
ARC
  5
20A
330
1F
100
AcDbEntity
  8
OBRYS
100
AcDbCircle
 10
60.7782835072
 20
89.5873001832
 30
0.0
 40
0.5
100
AcDbArc
 50
90.0
 51
180.0
  0
LINE
  5
20B
330
1F
100
AcDbEntity
  8
OBRYS
100
AcDbLine
 10
60.2782836294
 20
89.3873009223
 30
0.0
 11
60.2782836294
 21
89.5873005825
 31
0.0
  0
ARC
  5
20C
330
1F
100
AcDbEntity
  8
OBRYS
100
AcDbCircle
 10
59.7782835072
 20
89.3873001832
 30
0.0
 40
0.5
100
AcDbArc
 50
270.0
 51
0.0
  0
LINE
  5
20D
330
1F
100
AcDbEntity
  8
OBRYS
100
AcDbLine
 10
59.5782838871
 20
88.887299909
 30
0.0
 11
59.7782835474
 21
88.887299909
 31
0.0
  0
ARC
  5
20E
330
1F
100
AcDbEntity
  8
OBRYS
100
AcDbCircle
 10
59.5782835072
 20
89.3873001832
 30
0.0
 40
0.5
100
AcDbArc
 50
180.0
 51
270.0
  0
LINE
  5
20F
330
1F
100
AcDbEntity
  8
OBRYS
100
AcDbLine
 10
59.0782833395
 20
90.787298544
 30
0.0
 11
59.0782833395
 21
89.3873009223
 31
0.0
  0
ARC
  5
210
330
1F
100
AcDbEntity
  8
OBRYS
100
AcDbCircle
 10
59.5782835072
 20
90.7873001832
 30
0.0
 40
0.5
100
AcDbArc
 50
90.0
 51
180.0
  0
LINE
  5
211
330
1F
100
AcDbEntity
  8
OBRYS
100
AcDbLine
 10
62.0782833656
 20
91.2872995573
 30
0.0
 11
59.5782838871
 21
91.2872995573
 31
0.0
  0
ARC
  5
212
330
1F
100
AcDbEntity
  8
OBRYS
100
AcDbCircle
 10
62.0782835072
 20
90.7873001832
 30
0.0
 40
0.5000000000000071
100
AcDbArc
 50
0.0
 51
90.0
  0
LINE
  5
213
330
1F
100
AcDbEntity
  8
OBRYS
100
AcDbLine
 10
62.5782834476
 20
42.7872999894
 30
0.0
 11
62.5782834476
 21
90.787298544
 31
0.0
  0
ARC
  5
214
330
1F
100
AcDbEntity
  8
OBRYS
100
AcDbCircle
 10
62.0782835072
 20
42.7873001832
 30
0.0
 40
0.5000000000000071
100
AcDbArc
 50
270.0
 51
0.0
  0
LINE
  5
215
330
1F
100
AcDbEntity
  8
OBRYS
100
AcDbLine
 10
61.0782832017
 20
42.2873003731
 30
0.0
 11
62.0782833656
 21
42.2873003731
 31
0.0
  0
ARC
  5
216
330
1F
100
AcDbEntity
  8
OBRYS
100
AcDbCircle
 10
61.0782835072
 20
41.7873001832
 30
0.0
 40
0.5
100
AcDbArc
 50
90.0
 51
180.0
  0
LINE
  5
217
330
1F
100
AcDbEntity
  8
OBRYS
100
AcDbLine
 10
60.5782831197
 20
38.7873002069
 30
0.0
 11
60.5782831197
 21
41.7873002912
 31
0.0
  0
ARC
  5
218
330
1F
100
AcDbEntity
  8
OBRYS
100
AcDbCircle
 10
60.0782835072
 20
38.7873001832
 30
0.0
 40
0.5
100
AcDbArc
 50
270.0
 51
0.0
  0
LINE
  5
219
330
1F
100
AcDbEntity
  8
OBRYS
100
AcDbLine
 10
41.0782836487
 20
38.2873001832
 30
0.0
 11
60.0782839691
 21
38.2873001832
 31
0.0
  0
ARC
  5
21A
330
1F
100
AcDbEntity
  8
OBRYS
100
AcDbCircle
 10
41.0782835072
 20
38.7873001832
 30
0.0
 40
0.5
100
AcDbArc
 50
180.0
 51
270.0
  0
LINE
  5
21B
330
1F
100
AcDbEntity
  8
OBRYS
100
AcDbLine
 10
40.5782835668
 20
90.787298544
 30
0.0
 11
40.5782835668
 21
38.7873002069
 31
0.0
  0
DIMENSION
  5
21C
330
1F
100
AcDbEntity
  8
KOTY
100
AcDbDimension
  2
*D13
 10
59.0782835072
 20
97.2873001832
 30
0.0
 11
51.5782835072
 21
97.2873001832
 31
0.0
 70
   160
 71
     2
 42
-1.0
  3
SLDDIMSTYLE2
100
AcDbAlignedDimension
 13
44.0782835072
 23
90.7873001832
 33
0.0
 14
59.0782835072
 24
90.7873001832
 34
0.0
100
AcDbRotatedDimension
  0
DIMENSION
  5
228
330
1F
100
AcDbEntity
  8
KOTY
100
AcDbDimension
  2
*D14
 10
68.5782835072
 20
65.0873001832
 30
0.0
 11
68.5782835072
 21
78.6272157571
 31
0.0
 70
   160
 71
     2
 42
-1.0
  3
SLDDIMSTYLE0
100
AcDbAlignedDimension
 13
62.0782835072
 23
91.2873001832
 33
0.0
 14
60.3782835072
 24
65.0873001832
 34
0.0
 50
90.0
100
AcDbRotatedDimension
  0
DIMENSION
  5
232
330
1F
100
AcDbEntity
  8
KOTY
100
AcDbDimension
  2
*D15
 10
68.5782835072
 20
39.4873001832
 30
0.0
 11
68.5782835072
 21
51.9220800842
 31
0.0
 70
   160
 71
     2
 42
-1.0
  3
SLDDIMSTYLE0
100
AcDbAlignedDimension
 13
61.3782835072
 23
63.9873001832
 33
0.0
 14
59.3782835072
 24
39.4873001832
 34
0.0
 50
90.0
100
AcDbRotatedDimension
  0
DIMENSION
  5
23C
330
1F
100
AcDbEntity
  8
KOTY
100
AcDbDimension
  2
*D16
 10
74.5782835072
 20
91.2873001832
 30
0.0
 11
74.5782835072
 21
64.0481805791
 31
0.0
 70
   160
 71
     2
 42
-1.0
  3
SLDDIMSTYLE1
100
AcDbAlignedDimension
 13
60.0782835072
 23
38.2873001832
 33
0.0
 14
62.0782835072
 24
91.2873001832
 34
0.0
 50
90.0
100
AcDbRotatedDimension
  0
DIMENSION
  5
246
330
1F
100
AcDbEntity
  8
KOTY
100
AcDbDimension
  2
*D17
 10
40.5782835072
 20
32.2873001832
 30
0.0
 11
51.5782835072
 21
32.2873001832
 31
0.0
 70
   160
 71
     2
 42
-1.0
  3
SLDDIMSTYLE1
100
AcDbAlignedDimension
 13
62.5782835072
 23
42.7873001832
 33
0.0
 14
40.5782835072
 24
38.7873001832
 34
0.0
100
AcDbRotatedDimension
  0
ENDSEC
  0
SECTION
  2
OBJECTS
  0
DICTIONARY
  5
C
330
0
100
AcDbDictionary
281
     1
  3
ACAD_GROUP
350
D
  3
ACAD_LAYOUT
350
1A
  3
ACAD_MLINESTYLE
350
17
  3
ACAD_PLOTSETTINGS
350
19
  3
ACAD_PLOTSTYLENAME
350
E
  0
DICTIONARY
  5
D
102
{ACAD_REACTORS
330
C
102
}
330
C
100
AcDbDictionary
281
     1
  0
DICTIONARY
  5
1A
102
{ACAD_REACTORS
330
C
102
}
330
C
100
AcDbDictionary
281
     1
  3
Layout1
350
1E
  3
Layout2
350
26
  3
Model
350
22
  0
DICTIONARY
  5
17
102
{ACAD_REACTORS
330
C
102
}
330
C
100
AcDbDictionary
281
     1
  3
Standard
350
18
  0
DICTIONARY
  5
19
102
{ACAD_REACTORS
330
C
102
}
330
C
100
AcDbDictionary
281
     1
  0
ACDBDICTIONARYWDFLT
  5
E
102
{ACAD_REACTORS
330
C
102
}
330
C
100
AcDbDictionary
281
     1
  3
Normal
350
F
100
AcDbDictionaryWithDefault
340
F
  0
LAYOUT
  5
1E
102
{ACAD_REACTORS
330
1A
102
}
330
1A
100
AcDbPlotSettings
  1

  2
none_device
  4

  6

 40
0.0
 41
0.0
 42
0.0
 43
0.0
 44
0.0
 45
0.0
 46
0.0
 47
0.0
 48
0.0
 49
0.0
140
0.0
141
0.0
142
1.0
143
1.0
 70
   688
 72
     0
 73
     0
 74
     5
  7

 75
    16
147
1.0
148
0.0
149
0.0
100
AcDbLayout
  1
Layout1
 70
     1
 71
     1
 10
0.0
 20
0.0
 11
420.0
 21
297.0
 12
0.0
 22
0.0
 32
0.0
 14
1.0000000000E+20
 24
1.0000000000E+20
 34
1.0000000000E+20
 15
-1.0000000000E+20
 25
-1.0000000000E+20
 35
-1.0000000000E+20
146
0.0
 13
0.0
 23
0.0
 33
0.0
 16
1.0
 26
0.0
 36
0.0
 17
0.0
 27
1.0
 37
0.0
 76
     0
330
1B
  0
LAYOUT
  5
26
102
{ACAD_REACTORS
330
1A
102
}
330
1A
100
AcDbPlotSettings
  1

  2
none_device
  4

  6

 40
0.0
 41
0.0
 42
0.0
 43
0.0
 44
0.0
 45
0.0
 46
0.0
 47
0.0
 48
0.0
 49
0.0
140
0.0
141
0.0
142
1.0
143
1.0
 70
   688
 72
     0
 73
     0
 74
     5
  7

 75
    16
147
1.0
148
0.0
149
0.0
100
AcDbLayout
  1
Layout2
 70
     1
 71
     2
 10
0.0
 20
0.0
 11
0.0
 21
0.0
 12
0.0
 22
0.0
 32
0.0
 14
0.0
 24
0.0
 34
0.0
 15
0.0
 25
0.0
 35
0.0
146
0.0
 13
0.0
 23
0.0
 33
0.0
 16
1.0
 26
0.0
 36
0.0
 17
0.0
 27
1.0
 37
0.0
 76
     0
330
23
  0
LAYOUT
  5
22
102
{ACAD_REACTORS
330
1A
102
}
330
1A
100
AcDbPlotSettings
  1

  2
none_device
  4

  6

 40
0.0
 41
0.0
 42
0.0
 43
0.0
 44
0.0
 45
0.0
 46
0.0
 47
0.0
 48
0.0
 49
0.0
140
0.0
141
0.0
142
1.0
143
1.0
 70
  1712
 72
     0
 73
     0
 74
     0
  7

 75
     0
147
1.0
148
0.0
149
0.0
100
AcDbLayout
  1
Model
 70
     1
 71
     0
 10
0.0
 20
0.0
 11
210.0
 21
297.0
 12
0.0
 22
0.0
 32
0.0
 14
0.0
 24
0.0
 34
0.0
 15
210.0
 25
297.0
 35
0.0
146
0.0
 13
0.0
 23
0.0
 33
0.0
 16
1.0
 26
0.0
 36
0.0
 17
0.0
 27
1.0
 37
0.0
 76
     0
330
1F
331
29
  0
MLINESTYLE
  5
18
102
{ACAD_REACTORS
330
17
102
}
330
17
100
AcDbMlineStyle
  2
Standard
 70
     0
  3

 62
   256
 51
90.0
 52
90.0
 71
     2
 49
0.5
 62
   256
  6
BYLAYER
 49
-0.5
 62
   256
  6
BYLAYER
  0
ACDBPLACEHOLDER
  5
F
102
{ACAD_REACTORS
330
E
102
}
330
E
  0
ENDSEC
  0
EOF
